Анабель 3 / Annabelle Comes Home (2019) 1080p Ukr/Eng | Sub Eng

Нові коментарі

Нова тема   Відповісти
Автор Повідомлення
Anonymous 







2019-09-20 20:17  
Анабель 3 / Annabelle Comes Home (2019) 1080p Ukr/Eng | Sub Eng


«Вона прийде по кожного»


Жанр: детектив, жахи, трилер
Країна: США



Кінокомпанія:] Atomic Monster, New Line Cinema, The Safran Company
Режисер: Гарі Доберман
Актори: МакКенна Грейс, Медісон Ісман, Віра Фарміга, Патрік Вілсон, Майкл Патрік МакГілл

Сюжет:
Бажаючи утримати Анабель від нових вбивств, демонологи Лоррейн і Ед Воррени закривають одержиму ляльку в кімнаті артефактів у себе вдома, помістивши її за освячене скло і заручившись благословенням священика. Але ніч кошмарів наближається, коли Анабель пробуджує всіх злих духів в кімнаті, ціллю яких стає 10-річна дочка Ворренів Джуді та її друзі.


Тривалість: 01:46:05
Якість: 1080p

Відео:
кодек:
розмір кадру: 1920x808
бітрейт: ~9685 кб/с

Аудіо # 1:
мова: українська
переклад: професійний дубльований | студія Postmodern
кодек: 5.1
бітрейт: 384 кб/с
Інформація про дубляж
Перекладач: Катерина Щепковська
Режисер дубляжу: Катерина Брайковська
Звукорежисер: Андрій Славинський
Звукорежисер перезапису: Максим Корнелюк
Ролі дублювали: Дарина Муращенко, Антоніна Якушева, Софія Лозіна, Олег Лепенець, Наталя Ярошенко, Олександр Солодкий та інші.

Фільм дубльовано компанією Postmodern.
Аудіо # 2:
мова: українська
переклад: професійний дубльований | студія Postmodern
кодек: 2.0
бітрейт: 192 кб/с

Аудіо # 3:
мова: англійська
переклад: оригінал
кодек: 5.1
бітрейт: 640 кб/с

Субтитри (Forced):
мова: українська
тип: програмні (м'які)
формат: *.srt

Субтитри:
мова: англійська
тип: програмні (м'які)
формат: *.srt
Info
Код:

General
Complete name                            : Annabelle Comes Home (2019) 1080p [Ukr_Eng] [Video_Hurtom].
Format                                   :
Format version                           : Version 4
File size                                : 8.08 GiB
Duration                                 : 1 h 46 min
Overall bit rate                         : 10.9 Mb/s
Movie name                               : Annabelle Comes Home (2019) 1080p [ukr,eng] [Video_Hurtom]
Encoded date                             : UTC 2019-09-23 05:12:22
Writing application                      : v30.1.0 ('Forever And More') 64-bit
Writing library                          : libebml v1.3.6 + v1.4.9
Cover                                    : Yes
Attachments                              : cover.jpg

Video
ID                                       : 1
Format                                   : AVC
Format/Info                              : Advanced Video Codec
Format profile                           : [email protected]
Format settings                          : CABAC / 5 Ref Frames
Format settings, CABAC                   : Yes
Format settings, RefFrames               : 5 frames
Codec ID                                 : V_MPEG4/ISO/AVC
Duration                                 : 1 h 46 min
Bit rate                                 : 9 685 kb/s
Width                                    : 1 920 pixels
Height                                   : 808 pixels
Display aspect ratio                     : 2.40:1
Frame rate mode                          : Constant
Frame rate                               : 23.976 FPS
Color space                              : YUV
Chroma subsampling                       : 4:2:0
Bit depth                                : 8 bits
Scan type                                : Progressive
Bits/(Pixel*Frame)                       : 0.260
Stream size                              : 7.17 GiB (89%)
Writing library                          : core 158 r2984 3759fcb
Encoding settings                        : cabac=1 / ref=5 / deblock=1:-3:-3 / analyse=0x3:0x113 / me=umh / subme=8 / psy=1 / psy_rd=1.00:0.00 / mixed_ref=1 / me_range=16 / chroma_me=1 / trellis=1 / 8x8dct=1 / cqm=0 / deadzone=21,11 / fast_pskip=1 / chroma_qp_offset=-2 / threads=25 / lookahead_threads=4 / sliced_threads=0 / nr=0 / decimate=1 / interlaced=0 / bluray_compat=0 / constrained_intra=0 / bframes=3 / b_pyramid=2 / b_adapt=1 / b_bias=0 / direct=3 / weightb=1 / open_gop=0 / weightp=2 / keyint=250 / keyint_min=23 / scenecut=40 / intra_refresh=0 / rc_lookahead=50 / rc=2pass / mbtree=1 / bitrate=9685 / ratetol=1.0 / qcomp=0.60 / qpmin=0 / qpmax=69 / qpstep=4 / cplxblur=20.0 / qblur=0.5 / ip_ratio=1.40 / aq=1:1.00
Language                                 : English
Default                                  : Yes
Forced                                   : No

Audio #1
ID                                       : 2
Format                                   : AC-3
Format/Info                              : Audio Coding 3
Commercial name                          : Dolby Digital
Codec ID                                 : A_AC3
Duration                                 : 1 h 46 min
Bit rate mode                            : Constant
Bit rate                                 : 384 kb/s
Channel(s)                               : 6 channels
Channel layout                           : L R C LFE Ls Rs
Sampling rate                            : 48.0 kHz
Frame rate                               : 31.250 FPS (1536 SPF)
Bit depth                                : 16 bits
Compression mode                         : Lossy
Stream size                              : 291 MiB (4%)
Title                                    : , 6 ch, 384 Кбт/с
Language                                 : Ukrainian
Service kind                             : Complete Main
Default                                  : Yes
Forced                                   : No

Audio #2
ID                                       : 3
Format                                   : AC-3
Format/Info                              : Audio Coding 3
Commercial name                          : Dolby Digital
Codec ID                                 : A_AC3
Duration                                 : 1 h 46 min
Bit rate mode                            : Constant
Bit rate                                 : 192 kb/s
Channel(s)                               : 2 channels
Channel layout                           : L R
Sampling rate                            : 48.0 kHz
Frame rate                               : 31.250 FPS (1536 SPF)
Bit depth                                : 16 bits
Compression mode                         : Lossy
Stream size                              : 146 MiB (2%)
Title                                    : , 2 ch, 192 Кбт/с
Language                                 : Ukrainian
Service kind                             : Complete Main
Default                                  : No
Forced                                   : No

Audio #3
ID                                       : 4
Format                                   : AC-3
Format/Info                              : Audio Coding 3
Commercial name                          : Dolby Digital
Codec ID                                 : A_AC3
Duration                                 : 1 h 46 min
Bit rate mode                            : Constant
Bit rate                                 : 640 kb/s
Channel(s)                               : 6 channels
Channel layout                           : L R C LFE Ls Rs
Sampling rate                            : 48.0 kHz
Frame rate                               : 31.250 FPS (1536 SPF)
Bit depth                                : 16 bits
Compression mode                         : Lossy
Stream size                              : 486 MiB (6%)
Title                                    : , 6 ch, 640 Кбт/с
Language                                 : English
Service kind                             : Complete Main
Default                                  : No
Forced                                   : No

Text #1
ID                                       : 5
Format                                   : UTF-8
Codec ID                                 : S_TEXT/UTF8
Codec ID/Info                            : UTF-8 Plain Text
Duration                                 : 1 h 42 min
Bit rate                                 : 2 b/s
Count of elements                        : 38
Stream size                              : 2.09 KiB (0%)
Title                                    : Forced
Language                                 : Ukrainian
Default                                  : No
Forced                                   : No

Text #2
ID                                       : 6
Format                                   : UTF-8
Codec ID                                 : S_TEXT/UTF8
Codec ID/Info                            : UTF-8 Plain Text
Duration                                 : 1 h 40 min
Bit rate                                 : 43 b/s
Count of elements                        : 1237
Stream size                              : 32.2 KiB (0%)
Title                                    : SDH
Language                                 : English
Default                                  : No
Forced                                   : No

Menu
00:00:00.000                             : en:00:00:00.000
00:07:57.560                             : en:00:07:57.560
00:15:34.225                             : en:00:15:34.225
00:24:02.066                             : en:00:24:02.066
00:32:57.017                             : en:00:32:57.017
00:43:00.411                             : en:00:43:00.411
00:52:29.688                             : en:00:52:29.688
01:02:07.599                             : en:01:02:07.599
01:06:14.179                             : en:01:06:14.179
01:15:05.334                             : en:01:15:05.334
01:21:45.025                             : en:01:21:45.025
01:30:22.250                             : en:01:30:22.250
01:39:58.618                             : en:01:39:58.618
Скріншоти






За аудіо аудіо 5.1 | 384 Kbps | Itunes | Ukr подяка трекеру : 0day
Джерело:
Особиста оцінка: 0 - не дивився


Золотий реліз (завантажене не впливає на рейтинг)
 Трекер:    Зареєстрований   

Завантажити / скачати фільм українською



відео для новачків



 Зареєстрований:   2019-09-23 07:26
 Розмір:   8.08 GB 
 Оцінка фільму:   8.6/10 (Голосів: 18)
   
Інші релізи
   Анабель 3 / Annabelle Comes Home (2019) 720p Ukr/Eng | Sub Eng 11FrYkT  7 / 0   4.62 GB   2019-09-29 10:06 
   Анабель 3 / Annabelle Comes Home (2019) Remux 1080p Ukr/Eng | Sub Eng antik_2008  2 / 0   23.06 GB   2019-09-27 18:05 
   Анабель 3 / Annabelle Comes Home (2019) AVC Ukr/Eng | Sub Eng 11FrYkT  21 / 0   1.9 GB   2019-09-23 14:54 
   Анабель 3 / Annabelle Comes Home (2019) Ukr/Eng antik_2008  13 / 0   1.87 GB   2019-09-23 13:14 
bot 
робот


З нами з: 30.09.07
Востаннє: 26.05.05
Повідомлень: 22470

2019-09-20 20:47  
Тему перенесено з Анонси релізів до форуму Фільми в HD


antik_2008

Anonymous 







2019-09-23 07:28  
Торент файл оновлено. Додав аудіо 5.1 | 384 Kbps | Itunes
Cerguk 
Свій


З нами з: 30.09.09
Востаннє: 15.11.19
Повідомлень: 86

2019-09-25 10:06  
Атмосферно, досить якісно, місцями навіть моторошно. В цілому фільм на 6 може й тягне, але нічого нового і навряд чи за місяць згадаєш що в ньому було, якось так...
hetzendorf 
Забанено
Забанено


З нами з: 23.07.15
Востаннє: 02.11.19
Повідомлень: 2572

2019-09-28 00:23  
Епопея про Аннабелль (як нове покоління переродження старини Чакі ^_^ ) досі тримає марку й продовжує вганяти у дрижаки під час перегляду! Цей фільм водночас простенький, але разом з тим в ньому вдалося поєднати страхітливість, сентиментальність і, раптово, загальний позитив лейтмотив! ^__^ Щось не можу пригадати чогось подібного серед фільмів жахів.
10/10

Ваш часовий пояс: GMT + 2 Години

Нова тема   Відповісти