Ліга Європи 2019-2020 / Група B / 1- тур / Динамо Київ - Мальме ФФ / Футбол 1 HD (19.09.2019)

Нові коментарі

Нова тема   Відповісти
Останній раз роздавалося espado (2020-01-25)
Автор Повідомлення
Anonymous 







2019-09-20 16:03  
Ліга Європи 2019-2020 / Група B / 1- тур / Динамо Київ - Мальме ФФ / Футбол 1 HD (19.09.2019)

Ліга Європи 2019-2020 / Група B / 1- тур / Динамо Київ - Мальме ФФ / Футбол 1 HD (19.09.2019)


Телеканал: Футбол 1 HD
Опис:
Ліга Європи 2019-2020 / Група B / 1- тур / Динамо Київ - Мальме ФФ
Тривалість:
00:50:56+00:51:24
Якість:
Відео:
кодек:
розмір кадру: 1280x720
бітрейт: ~3600 кб/с

Аудіо:
мова: українська
переклад: одноголосий закадровий | Олександр Михайлюк |
кодек: 2.0
бітрейт: 128 кб/с
Склади:
Скріншоти


Info
Код:
General
Complete name                            : UEFA Europa League 2019-2020 » Group B » Matchday 01 » Dynamo Kyiv vs Malmoe FF 720p UA\Half_2.
Format                                   :
Format version                           : Version 4
File size                                : 1.37 GiB
Duration                                 : 51 min 24 s
Overall bit rate                         : 3 816 kb/s
Writing application                      : VideoReDo (Lavf56.25.101)
Writing library                          : VideoReDo (Lavf56.25.101)

Video
ID                                       : 1
Format                                   : AVC
Format/Info                              : Advanced Video Codec
Format profile                           : [email protected]
Format settings                          : CABAC / 4 Ref Frames
Format settings, CABAC                   : Yes
Format settings, RefFrames               : 4 frames
Format settings, GOP                     : M=2, N=15
Codec ID                                 : V_MPEG4/ISO/AVC
Duration                                 : 51 min 24 s
Bit rate                                 : 3 612 kb/s
Width                                    : 1 280 pixels
Height                                   : 720 pixels
Display aspect ratio                     : 16:9
Frame rate mode                          : Constant
Frame rate                               : 50.000 FPS
Color space                              : YUV
Chroma subsampling                       : 4:2:0
Bit depth                                : 8 bits
Scan type                                : Progressive
Bits/(Pixel*Frame)                       : 0.078
Stream size                              : 1.30 GiB (95%)
Default                                  : No
Forced                                   : No

Audio
ID                                       : 2
Format                                   : AC-3
Format/Info                              : Audio Coding 3
Commercial name                          : Dolby Digital
Codec ID                                 : A_AC3
Duration                                 : 51 min 24 s
Bit rate mode                            : Constant
Bit rate                                 : 128 kb/s
Channel(s)                               : 2 channels
Channel layout                           : L R
Sampling rate                            : 48.0 kHz
Frame rate                               : 31.250 FPS (1536 SPF)
Bit depth                                : 16 bits
Compression mode                         : Lossy
Stream size                              : 47.1 MiB (3%)
Language                                 : Ukrainian
Service kind                             : Complete Main
Default                                  : Yes
Forced                                   : No
Джерело:
Особиста оцінка: 7 - моїй подрузі не сподобалося


Золотий реліз (завантажене не впливає на рейтинг)
 Трекер:    Зареєстрований   

Завантажити / скачати торрент



відео для новачків



 Зареєстрований:   2019-09-20 16:03
 Розмір:   2.64 GB 
 Оцінка:   9.8/10 (Голосів: 4)
   
pixcar 
Новенький


З нами з: 11.10.13
Востаннє: 16.03.20
Повідомлень: 2

2019-09-20 17:09  
дайте швидкості!!!!
Ваш часовий пояс: GMT + 2 Години

Нова тема   Відповісти