Ліга Європи 2019-2020 / Група I / 1- тур / Вольфсбург - Олександрія / Футбол 2 HD (19.09.2019)

Нові коментарі

Нова тема   Відповісти
Останній раз роздавалося antik_2008 (2019-11-11)
Автор Повідомлення
Anonymous 







2019-09-20 16:03  
Ліга Європи 2019-2020 / Група I / 1- тур / Вольфсбург - Олександрія / Футбол 2 HD (19.09.2019)

Ліга Європи 2019-2020 / Група I / 1- тур / Вольфсбург - Олександрія / Футбол 2 HD (19.09.2019)


Телеканал: Футбол 2 HD
Опис:
Ліга Європи 2019-2020 / Група I / 1- тур / Вольфсбург - Олександрія
Тривалість:
00:58:29+00:51:00
Якість:
Відео:
кодек:
розмір кадру: 1280x720
бітрейт: ~3400 кб/с

Аудіо:
мова: українська
переклад: одноголосий закадровий | Роман Тимощук |
кодек: 2.0
бітрейт: 128 кб/с
Склади:
Скріншоти


Info
Код:
General
Complete name                            : UEFA Europa League 2019-2020 » Group I » Matchday 1 » Wolfsburg vs FC Alexandria 720p UA\Half_2.
Format                                   :
Format version                           : Version 4
File size                                : 1.19 GiB
Duration                                 : 51 min 0 s
Overall bit rate                         : 3 347 kb/s
Writing application                      : VideoReDo (Lavf56.25.101)
Writing library                          : VideoReDo (Lavf56.25.101)

Video
ID                                       : 1
Format                                   : AVC
Format/Info                              : Advanced Video Codec
Format profile                           : [email protected]
Format settings                          : CABAC / 4 Ref Frames
Format settings, CABAC                   : Yes
Format settings, RefFrames               : 4 frames
Format settings, GOP                     : M=2, N=15
Codec ID                                 : V_MPEG4/ISO/AVC
Duration                                 : 51 min 0 s
Bit rate                                 : 3 153 kb/s
Width                                    : 1 280 pixels
Height                                   : 720 pixels
Display aspect ratio                     : 16:9
Frame rate mode                          : Constant
Frame rate                               : 50.000 FPS
Color space                              : YUV
Chroma subsampling                       : 4:2:0
Bit depth                                : 8 bits
Scan type                                : Progressive
Bits/(Pixel*Frame)                       : 0.068
Stream size                              : 1.12 GiB (94%)
Default                                  : No
Forced                                   : No

Audio
ID                                       : 2
Format                                   : AC-3
Format/Info                              : Audio Coding 3
Commercial name                          : Dolby Digital
Codec ID                                 : A_AC3
Duration                                 : 51 min 0 s
Bit rate mode                            : Constant
Bit rate                                 : 128 kb/s
Channel(s)                               : 2 channels
Channel layout                           : L R
Sampling rate                            : 48.0 kHz
Frame rate                               : 31.250 FPS (1536 SPF)
Bit depth                                : 16 bits
Compression mode                         : Lossy
Stream size                              : 46.7 MiB (4%)
Language                                 : Ukrainian
Service kind                             : Complete Main
Default                                  : Yes
Forced                                   : No
Джерело:
Особиста оцінка: 7 - моїй подрузі не сподобалося


Бронзовий реліз (на рейтинг впливає 75% завантаженого)
 Трекер:    Зареєстрований   

Завантажити / скачати торрент



відео для новачків



 Зареєстрований:   2019-09-20 16:03
 Розмір:   2.56 GB 
 Оцінка:   9.5/10 (Голосів: 2)
   
Ваш часовий пояс: GMT + 2 Години

Нова тема   Відповісти