Без паніки, майоре Кардош! / Csak semmi pánik... (1982) DVDRemux Ukr/Hun

Нові коментарі

Нова тема   Відповісти
Автор Повідомлення
підпільник 
VIP


З нами з: 11.04.12
Востаннє: 18.10.19
Повідомлень: 317

2019-09-20 09:53  
Без паніки, майоре Кардош! / Csak semmi pánik... (1982) DVDRemux Ukr/Hun

Без паніки, майоре Кардош! / Csak semmi pánik... (1982) DVDRemux Ukr/Hun


Жанр: бойовик, детектив, комедія
Країна: Угорщина



Кінокомпанія: Ötvös Csöpi Series
Режисер: Іштван Буйтор, Sándor Szönyi G.
Актори: Іштван Буйтор, Ференц Пушкаш, Андраш Керн, Марія Гор Нодь та ін.

Сюжет:
У районі озера Балатон зазнає аварії літак з Німеччини. Майор угорської міліції Кардош по телефону дізнається від дочки загиблого льотчика, що у неї зберігається лист, де її батько розповідає про вивезені під час Другої світової війни з Будапешта музейні цінності. До листа додається детальна карта. Розслідування ускладнюється цілою низкою загадкових вбивств. Хто ж швидше добереться до скарбів - супермен Етвош на прізвисько Капелька - лейтенант міліції, який робить за Кардош всю чоловічу роботу, чи злочинці? ..


Тривалість: 01:24:00
Якість: DVDRemux

Відео:
кодек: MPEG-2
розмір кадру: 720 х 576
бітрейт: 7187 кб/с

Аудіо # 1:
мова: українська
переклад: двоголосий закадровий
кодек: 2.0
бітрейт: 192 кб/с

Джерело озвучення:


Аудіо # 2:
мова: угорська
переклад:оригінал
кодек: 2.0
бітрейт: 192 кб/с
Info
Код:

Format                                   : MPEG-PS
File size                                : 4.56 GiB
Duration                                 : 1 h 24 min
Overall bit rate mode                    : Variable
Overall bit rate                         : 7 725 kb/s

Video
ID                                       : 224 (0xE0)
Format                                   : MPEG Video
Format version                           : Version 2
Format profile                           : [email protected]
Format settings                          : BVOP
Format settings, BVOP                    : Yes
Format settings, Matrix                  : Default
Format settings, GOP                     : M=3, N=12
Format settings, picture structure       : Frame
Duration                                 : 1 h 24 min
Bit rate mode                            : Variable
Bit rate                                 : 7 187 kb/s
Maximum bit rate                         : 8 900 kb/s
Width                                    : 720 pixels
Height                                   : 576 pixels
Display aspect ratio                     : 4:3
Frame rate                               : 25.000 FPS
Standard                                 : PAL
Color space                              : YUV
Chroma subsampling                       : 4:2:0
Bit depth                                : 8 bits
Scan type                                : Interlaced
Scan order                               : Top Field First
Compression mode                         : Lossy
Bits/(Pixel*Frame)                       : 0.693
Time code of first frame                 : 00:00:00:00
Time code source                         : Group of pictures header
GOP, Open/Closed                         : Open
GOP, Open/Closed of first frame          : Closed
Stream size                              : 4.25 GiB (93%)

Audio #1
ID                                       : 189 (0xBD)-128 (0x80)
Format                                   : AC-3
Format/Info                              : Audio Coding 3
Commercial name                          : Dolby Digital
Muxing mode                              : DVD-Video
Duration                                 : 1 h 24 min
Bit rate mode                            : Constant
Bit rate                                 : 192 kb/s
Channel(s)                               : 2 channels
Channel layout                           : L R
Sampling rate                            : 48.0 kHz
Frame rate                               : 31.250 FPS (1536 SPF)
Bit depth                                : 16 bits
Compression mode                         : Lossy
Delay relative to video                  : -40 ms
Stream size                              : 116 MiB (2%)
Service kind                             : Complete Main

Audio #2
ID                                       : 189 (0xBD)-129 (0x81)
Format                                   : AC-3
Format/Info                              : Audio Coding 3
Commercial name                          : Dolby Digital
Muxing mode                              : DVD-Video
Duration                                 : 1 h 24 min
Bit rate mode                            : Constant
Bit rate                                 : 192 kb/s
Channel(s)                               : 2 channels
Channel layout                           : L R
Sampling rate                            : 48.0 kHz
Frame rate                               : 31.250 FPS (1536 SPF)
Bit depth                                : 16 bits
Compression mode                         : Lossy
Delay relative to video                  : 241 ms
Stream size                              : 116 MiB (2%)
Service kind                             : Complete Main

Menu
інфо щодо релізу

відео зліплено методом зклейки файлів з оригінального DVD образу (без перекодування) + накладено нашу доріжку.
звук порізаний, зведений, скинутий в вавку, з вавки перекодований в на частотах сирця з застосуванням 1 фільтру - ʼʼшумодавʼ, який зрізає тільки білі шуми, особливо помітні в паузах.
фото скріншотів




























тест
запис звуку:Bohdan237

Джерело:
Особиста оцінка: 8 - мені сподобалося


Срібний реліз (на рейтинг впливає 50% завантаженого)
 Трекер:    Зареєстрований   

Завантажити / скачати фільм українською



відео для новачків



 Зареєстрований:   2019-09-21 16:10
 Розмір:   4.56 GB 
 Оцінка фільму:   9.5/10 (Голосів: 2)
   
Інші релізи
ssTAss 
Модератор музики


З нами з: 05.07.08
Востаннє: 18.10.19
Повідомлень: 15495

2019-09-21 14:18  
підпільник написано:
Без паніки майоре Кардош

Без паніки, майоре Кардош!
https://teleprograma.com.ua/channels/1547/?date=2019-09-19
і Ви прям гуру фотошопу)))))
і чому в закритому розділі, а не в анонсах?

Додано через 2 хвилини 25 секунд:

підпільник написано:
Ugr

може краще Hun?

підпільник 
VIP


З нами з: 11.04.12
Востаннє: 18.10.19
Повідомлень: 317

2019-09-21 15:20  


bot 
робот


З нами з: 30.09.07
Востаннє: 26.05.05
Повідомлень: 22315

2019-09-22 02:47  
Тему перенесено з Закритий розділ до форуму Анонси релізів


підпільник

bot 
робот


З нами з: 30.09.07
Востаннє: 26.05.05
Повідомлень: 22315

2019-09-22 14:07  
Тему перенесено з Анонси релізів до форуму Фільми


підпільник

dreamer 
VIP


З нами з: 10.05.08
Востаннє: 18.10.19
Повідомлень: 522

2019-09-24 11:31  
колись дивився..треба оновити спогади.. дякую..
Ваш часовий пояс: GMT + 2 Години

Нова тема   Відповісти