Життя є життя. Кінець Блумер / Live is Life. Die Spätzünder (2010) 720p Ukr/Ger

Нові коментарі

Нова тема   Відповісти
Автор Повідомлення
Anonymous 







2019-09-20 02:14  
Життя є життя. Кінець Блумер / Live is Life. Die Spätzünder (2010) 720p Ukr/Ger

Життя є життя. Кінець Блумер / Live is Life. Die Spätzünder (2010) 720p Ukr/Ger


Жанр: комедія
Країна: Австрія, Німеччина



Кінокомпанія: Dor Film Produktionsgesellschaft, Südwestrundfunk (SWR), Österreichischer Rundfunk (ORF)
Режисер: Вольфганг Мюрнбергер
Актори: Ян Джозеф Ліферс, Урсула Штраус, Бібіана Целлер, Ганс-Мікаель Регберг, Лібгарт Шварц, Петра Морзе та ін.

Сюжет:
Рокко колишній музикант і йому загрожує в'язниця або виправні роботи. У будинку престарілих, куди його направили працювати, панує суворий режим. Мешканці пам'ятають Рокко та його творчість і просять допомогти їм виграти у музичному конкурсі 100 тисяч євро. Ці гроші потрібні їм, щоб купити свободу і незалежність від деспотичного директора будинку. Так народжується гурт «Рокко та кардіостимулятори». Вони не тільки виграють приз, але й стають популярними.


Тривалість: 01:28:58
Якість:
Відео:
кодек:
розмір кадру: 1280 х 720
бітрейт: 3584 кб/с

Аудіо # 1:
мова: українська
переклад: двоголосий закадровий
кодек: 2.0
бітрейт: 192 кб/с

Аудіо # 2:
мова: німецька
переклад: оригінал
кодек: 2.0
бітрейт: 192 кб/с

Джерело озвучення:
Компанія КіТ
Info
General
Unique ID : 245932274600080068145864049806924815115 (0xB904D54C39ADA3D81399457C34239B0B)
Complete name : Live is Life. Die Spätzünder (2010) 720p [Ukr_Ger] [Hurtom].
Format :
Format version : Version 4
File size : 2.47 GiB
Duration : 1 h 28 min
Overall bit rate : 3 967 kb/s
Movie name : Життя є життя. Кінець Блумер (2010)
Encoded date : UTC 2019-09-19 22:06:34
Writing application : v36.0.0 ('Is That Jazz?') 32-bit
Writing library : libebml v1.3.9 + v1.5.2
Cover : Yes
Attachments : cover.jpg

Video
ID : 1
Format : AVC
Format/Info : Advanced Video Codec
Format profile : [email protected]
Format settings : CABAC / 3 Ref Frames
Format settings, CABAC : Yes
Format settings, ReFrames : 3 frames
Format settings, GOP : M=1, N=25
Codec ID : V_MPEG4/ISO/AVC
Duration : 1 h 28 min
Bit rate mode : Constant
Bit rate : 3 584 kb/s
Width : 1 280 pixels
Height : 720 pixels
Display aspect ratio : 16:9
Frame rate mode : Constant
Frame rate : 25.000 FPS
Standard : PAL
Color space : YUV
Chroma subsampling : 4:2:0
Bit depth : 8 bits
Scan type : Progressive
Bits/(Pixel*Frame) : 0.156
Stream size : 2.23 GiB (90%)
Language : German
Default : Yes
Forced : No
Color range : Limited

Audio #1
ID : 2
Format : AC-3
Format/Info : Audio Coding 3
Commercial name : Dolby Digital
Codec ID : A_AC3
Duration : 1 h 28 min
Bit rate mode : Constant
Bit rate : 192 kb/s
Channel(s) : 2 channels
Channel layout : L R
Sampling rate : 48.0 kHz
Frame rate : 31.250 FPS (1536 SPF)
Bit depth : 16 bits
Compression mode : Lossy
Stream size : 122 MiB (5%)
Language : Ukrainian
Service kind : Complete Main
Default : Yes
Forced : Yes

Audio #2
ID : 3
Format : LC
Format/Info : Advanced Audio Codec Low Complexity
Codec ID : A_AAC-2
Duration : 1 h 28 min
Bit rate : 192 kb/s
Channel(s) : 2 channels
Channel layout : L R
Sampling rate : 48.0 kHz
Frame rate : 46.875 FPS (1024 SPF)
Compression mode : Lossy
Stream size : 121 MiB (5%)
Language : German
Default : No
Forced : No
Скріншоти





Джерело:


 Трекер:    Зареєстрований   

Завантажити / скачати фільм українською



відео для новачків



 Зареєстрований:   2019-09-20 02:14
 Розмір:   2.47 GB 
 Оцінка фільму:   10/10 (Голосів: 4)
   
Інші релізи
Anonymous 







2019-09-20 02:14  
продовження https://toloka.to/t104460
Ваш часовий пояс: GMT + 2 Години

Нова тема   Відповісти