Я-це суд, Суд-це я / I, the Jury (1982) Remux 1080p Ukr/Eng

Нові коментарі

Нова тема   Відповісти
Автор Повідомлення
MakRA 
VIP


З нами з: 11.11.18
Востаннє: 25.09.20
Повідомлень: 1120

2019-09-20 01:01  
Я-це суд, Суд-це я / I, the Jury (1982) Remux 1080p Ukr/Eng


Альтернативний постер:

Жанр: кримінальний, драма, детектив
Країна: США



Кінокомпанія: American Cinema Productions, Larco Productions, Pellepont Investment Company, Solofilm
Режисер: Річард Т. Хеффрон [Richard T. Heffron]
Актори: Арманд Ассанте [Armand Assante], Барбара Каррера [Barbara Carrera], Лорен Лендон [Laurene Landon], Алан Кінг [Alan King], Джеффрі Льюіс [Geoffrey Lewis], Пол Сорвіно [Paul Sorvino], Джадсон Ірні Скотт [Judson Scott], Беррі Снайдер [Barry Snider], Джулія Барр [Julia Barr], Джесіка Джеймс [Jessica James]

Сюжет:
В одному з нью-йоркських готелів був убитий однорукий слідчий на ім'я Джек Вілльямс. На місце злочину прибуває приватний детектив Майк Хаммер і впізнає в убитому свого друга з яким разом воював під час в'єтнамської війни. Не сподіваючись на поліцію, Хаммер самостійно вирушає на пошуки вбивці. Але як тільки він наближається до розгадки, маніяк випереджає його і вислизає. У Хаммера виникають підозри, що вбивця отримує інформацію від поліції і вирішує сам вершити правосуддя.

Друга екранізація першого роману Міккі Спіллейна про Майка Хаммера.



Тривалість: 01:51:06
Якість: Remux 1080p
Відео:
кодек:
розмір кадру: 1920 х 1080
бітрейт: 27,1 Mб/с

Аудіо # 1:
мова: українська
переклад: двоголосий закадровий
кодек: 2.0
бітрейт: 192 кб/с
примітка: є фрази без перекладу

Аудіо # 2:
мова: англійська
переклад: оригінал
кодек: -HD MA 2.0
бітрейт: 1560 кб/с

Аудіо # 3:
мова: англійська
переклад: оригінал
кодек: 2.0
бітрейт: 192 кб/с

Аудіо # 4:
мова: англійська
переклад: коментарі Стіва Мітчелла, продюсера Кінга Коена та фільмознавця Натаніеля Томпсона
кодек: 2.0
бітрейт: 192 кб/с
Info
General
Unique ID : 65731600376012864056533214522146701643 (0x3173721C635125275986B920AB82414B)
Complete name : M:\+ Films based on works by Mickey Spillane\I, the Jury (1982) Remux 1080p UkrEng [Hurtom].
Format :
Format version : Version 4
File size : 21.0 GiB
Duration : 1 h 51 min
Overall bit rate mode : Variable
Overall bit rate : 27.1 Mb/s
Movie name : Я-це суд, Суд-це я / I, the Jury (1982) Remux 1080p Ukr/Eng [Hurtom]
Encoded date : UTC 2019-09-19 20:29:28
Writing application : v25.0.0 ('Prog Noir') 64-bit
Writing library : libebml v1.3.6 + v1.4.9

Video
ID : 1
Format : AVC
Format/Info : Advanced Video Codec
Format profile : [email protected]
Format settings : CABAC / 4 Ref Frames
Format settings, CABAC : Yes
Format settings, Reference fra : 4 frames
Codec ID : V_MPEG4/ISO/AVC
Duration : 1 h 51 min
Bit rate mode : Variable
Bit rate : 24.9 Mb/s
Maximum bit rate : 35.0 Mb/s
Width : 1 920 pixels
Height : 1 080 pixels
Display aspect ratio : 16:9
Frame rate mode : Constant
Frame rate : 23.976 (24000/1001) FPS
Standard : NTSC
Color space : YUV
Chroma subsampling : 4:2:0
Bit depth : 8 bits
Scan type : Progressive
Bits/(Pixel*Frame) : 0.501
Stream size : 19.3 GiB (92%)
Title : I, the Jury (1982) Remux 1080p Ukr/Eng [Hurtom]
Language : Ukrainian
Default : Yes
Forced : Yes
Color range : Limited
Color primaries : BT.709
Transfer characteristics : BT.709
Matrix coefficients : BT.709

Audio #1
ID : 2
Format : AC-3
Format/Info : Audio Coding 3
Commercial name : Dolby Digital
Codec ID : A_AC3
Duration : 1 h 50 min
Bit rate mode : Constant
Bit rate : 192 kb/s
Channel(s) : 2 channels
Channel layout : L R
Sampling rate : 48.0 kHz
Frame rate : 31.250 FPS (1536 SPF)
Bit depth : 16 bits
Compression mode : Lossy
Delay relative to video : 4 s 0 ms
Stream size : 152 MiB (1%)
Title : DVO [ICTV] 2.0
Language : Ukrainian
Service kind : Complete Main
Default : Yes
Forced : No

Audio #2
ID : 3
Format : XLL
Format/Info : Digital Theater Systems
Commercial name : -HD Master Audio
Codec ID : A_DTS
Duration : 1 h 51 min
Bit rate mode : Variable
Bit rate : 1 560 kb/s
Channel(s) : 2 channels
Channel layout : L R
Sampling rate : 48.0 kHz
Frame rate : 93.750 FPS (512 SPF)
Bit depth : 16 bits
Compression mode : Lossless
Stream size : 1.21 GiB (6%)
Title : Original -HD MA 2.0
Language : English
Default : No
Forced : No

Audio #3
ID : 4
Format : AC-3
Format/Info : Audio Coding 3
Commercial name : Dolby Digital
Codec ID : A_AC3
Duration : 1 h 50 min
Bit rate mode : Constant
Bit rate : 192 kb/s
Channel(s) : 2 channels
Channel layout : L R
Sampling rate : 48.0 kHz
Frame rate : 31.250 FPS (1536 SPF)
Bit depth : 16 bits
Compression mode : Lossy
Delay relative to video : 4 s 0 ms
Stream size : 152 MiB (1%)
Title : Original 2.0
Language : English
Service kind : Complete Main
Default : No
Forced : No

Audio #4
ID : 5
Format : AC-3
Format/Info : Audio Coding 3
Commercial name : Dolby Digital
Codec ID : A_AC3
Duration : 1 h 51 min
Bit rate mode : Constant
Bit rate : 256 kb/s
Channel(s) : 2 channels
Channel layout : L R
Sampling rate : 48.0 kHz
Frame rate : 31.250 FPS (1536 SPF)
Bit depth : 16 bits
Compression mode : Lossy
Stream size : 203 MiB (1%)
Title : Original 2.0 | Commentary by Steve Mitchell, producer/director of King Cohen and Film Historian Nathaniel Thompson
Language : English
Service kind : Complete Main
Default : No
Forced : No
Скріншоти
Джерело: &
Величезна подяка п. bogdan8249 за звук
Особиста оцінка: 10 - без зайвих вагань рекомендую всім!


Золотий реліз (завантажене не впливає на рейтинг)
 Трекер:    Зареєстрований   

Завантажити / скачати фільм українською



відео для новачків



 Зареєстрований:   2019-09-20 01:01
 Розмір:   21.03 GB 
 Оцінка фільму:   10/10 (Голосів: 7)
   
Інші релізи
   Я-це суд, Суд-це я / I, the Jury (1982) Ukr/Eng bogdan8249  3 / 0   1.49 GB   2012-01-28 00:06 
MakRA 
VIP


З нами з: 11.11.18
Востаннє: 25.09.20
Повідомлень: 1120

2019-09-20 01:13  
Як прихильник творчості Міккі Спіллейна, не міг оминути увагою даний фільм. З книгою, правда,схожого мало, але "крутість" приватного детектива Майкла Хаммера збережено Happy
Ваш часовий пояс: GMT + 2 Години

Нова тема   Відповісти