Напад на 13-у дільницю (Напад на 13-й відділок) / Assault on Precinct 13 (2005) AVC 3xUkr/Eng | Sub Eng

Нові коментарі

Нова тема   Відповісти
Автор Повідомлення
Maters 
Відео Гуртом - підтримка та поширення
Відео Гуртом - підтримка та поширення


З нами з: 27.03.12
Востаннє: 19.10.19
Повідомлень: 1754

2019-09-19 21:44  
Напад на 13-у дільницю (Напад на 13-й відділок) / Assault on Precinct 13 (2005) AVC 3xUkr | Sub Eng

Напад на 13-у дільницю (Напад на 13-й відділок) / Assault on Precinct 13 (2005) AVC 3xUkr/Eng | Sub Eng


Жанр: екшн, кримінальний, драма
Країна: Франція, США



Кінокомпанія: Rogue Pictures, Why Not Productions, Liaison Films
Режисер: Жан-Франсуа Ріше
Актори: Ітан Хоук, Лоуренс Фішборн, Гебріел Бірн, Марія Белло, Дреа де Маттео, Джон Легуізамо, Брайан Деннехі, Джа Рул, Каррі Грем, Аіша Хіндс

Сюжет:
Лічені години залишаються до закриття 13-го поліцейського відділку. Але поки його співробітники на чолі з сержантом Роуніком готуються до зустрічі Нового року, снігова буря розвертає до них спецавтобус зі злочинцями. У їх числі і тільки що захоплений гангстер Меріон Бішоп. Ніщо, здавалося б, не дозволить відволікти поліцейських від святкування: поки озброєні люди в масках не нападають на дільницю. І охоронці закону вимушені об'єднатися зі злочинцями, щоб вижити цієї ночі! ...


Тривалість: 01:48:49
Якість:
Відео:
кодек:
розмір кадру: 1024 х 432
бітрейт: 1850 кб/с

Аудіо # 1:
мова: українська
переклад: двоголосий закадровий
кодек: 2.0
бітрейт: 192 кб/с

Аудіо # 2:
мова: українська
переклад: двоголосий закадровий
кодек: 2.0
бітрейт: 192 кб/с

Аудіо # 3:
мова: українська
переклад: двоголосий закадровий ,
кодек: 2.0
бітрейт: 192 кб/с

Субтитри:
мова: англійська
тип: програмні (м'які)
формат: *.srt
Скріншоти





Info

General
Unique ID : 311858119420589519080448952962392168634 (0xEA9DB0662FB67E955E773B21A6DE98BA)
Complete name : D:\Downloaded\Ріпи\Нова папка\Assault on Precinct 13 (2005) AVC [3xUkr, sub. Eng] [Hurtom].
Format :
Format version : Version 4
File size : 1.84 GiB
Duration : 1 h 48 min
Overall bit rate : 2 422 kb/s
Movie name : Напад на 13-у дільницю / Assault on Precinct 13 (2005) [3xUkr, sub. Eng] AVC [Hurtom].
Encoded date : UTC 2019-09-25 20:20:15
Writing application : v35.0.0 ('All The Love In The World') 64-bit
Writing library : libebml v1.3.9 + v1.5.2
Cover : Yes
Attachments : cover.jpg

Video
ID : 1
Format : AVC
Format/Info : Advanced Video Codec
Format profile : [email protected]
Format settings : CABAC / 16 Ref Frames
Format settings, CABAC : Yes
Format settings, Reference : 16 frames
Codec ID : V_MPEG4/ISO/AVC
Duration : 1 h 48 min
Bit rate : 1 850 kb/s
Width : 1 024 pixels
Height : 432 pixels
Display aspect ratio : 2.40:1
Frame rate mode : Constant
Frame rate : 23.976 (24000/1001) FPS
Color space : YUV
Chroma subsampling : 4:2:0
Bit depth : 8 bits
Scan type : Progressive
Bits/(Pixel*Frame) : 0.174
Stream size : 1.41 GiB (76%)
Writing library : core 157 r2935 545de2f
Encoding settings : cabac=1 / ref=16 / deblock=1:-1:-1 / analyse=0x3:0x133 / me=umh / subme=10 / psy=1 / psy_rd=1.00:0.15 / mixed_ref=1 / me_range=24 / chroma_me=1 / trellis=2 / 8x8dct=1 / cqm=0 / deadzone=21,11 / fast_pskip=1 / chroma_qp_offset=-3 / threads=13 / lookahead_threads=2 / sliced_threads=0 / nr=0 / decimate=1 / interlaced=0 / bluray_compat=0 / constrained_intra=0 / bframes=8 / b_pyramid=2 / b_adapt=2 / b_bias=0 / direct=3 / weightb=1 / open_gop=0 / weightp=2 / keyint=240 / keyint_min=24 / scenecut=40 / intra_refresh=0 / rc_lookahead=60 / rc=2pass / mbtree=1 / bitrate=1850 / ratetol=1.0 / qcomp=0.60 / qpmin=0 / qpmax=69 / qpstep=4 / cplxblur=20.0 / qblur=0.5 / vbv_maxrate=62500 / vbv_bufsize=78125 / nal_hrd=none / filler=0 / ip_ratio=1.40 / aq=1:1.00
Default : Yes
Forced : No
Color range : Limited
Color primaries : BT.709
Transfer characteristics : BT.709
Matrix coefficients : BT.709

Audio #1
ID : 2
Format : AC-3
Format/Info : Audio Coding 3
Commercial name : Dolby Digital
Codec ID : A_AC3
Duration : 1 h 48 min
Bit rate mode : Constant
Bit rate : 192 kb/s
Channel(s) : 2 channels
Channel layout : L R
Sampling rate : 48.0 kHz
Frame rate : 31.250 FPS (1536 SPF)
Bit depth : 16 bits
Compression mode : Lossy
Delay relative to video : 1 s 0 ms
Stream size : 149 MiB (8%)
Title : Двоголосий закадровий, Новий канал
Language : Ukrainian
Service kind : Complete Main
Default : Yes
Forced : No

Audio #2
ID : 3
Format : AC-3
Format/Info : Audio Coding 3
Commercial name : Dolby Digital
Codec ID : A_AC3
Duration : 1 h 48 min
Bit rate mode : Constant
Bit rate : 192 kb/s
Channel(s) : 2 channels
Channel layout : L R
Sampling rate : 48.0 kHz
Frame rate : 31.250 FPS (1536 SPF)
Bit depth : 16 bits
Compression mode : Lossy
Delay relative to video : 1 s 0 ms
Stream size : 149 MiB (8%)
Title : Двоголосий закадровий, НЛО.ТВ
Language : Ukrainian
Service kind : Complete Main
Default : No
Forced : No

Audio #3
ID : 4
Format : AC-3
Format/Info : Audio Coding 3
Commercial name : Dolby Digital
Codec ID : A_AC3
Duration : 1 h 46 min
Bit rate mode : Constant
Bit rate : 192 kb/s
Channel(s) : 2 channels
Channel layout : L R
Sampling rate : 48.0 kHz
Frame rate : 31.250 FPS (1536 SPF)
Bit depth : 16 bits
Compression mode : Lossy
Delay relative to video : 1 s 0 ms
Stream size : 146 MiB (8%)
Title : Двоголосий закадровий, 1+1, ICTV
Language : Ukrainian
Service kind : Complete Main
Default : No
Forced : No

Text
ID : 5
Format : UTF-8
Codec ID : S_TEXT/UTF8
Codec ID/Info : UTF-8 Plain Text
Duration : 1 h 41 min
Bit rate : 63 b/s
Count of elements : 1466
Stream size : 47.5 KiB (0%)
Title : SDH
Language : English
Default : No
Forced : No
Джерело:
Особиста оцінка: 8 - мені сподобалося


 Трекер:    Зареєстрований   

Завантажити / скачати фільм українською



відео для новачків



 Зареєстрований:   2019-09-25 23:36
 Розмір:   1.84 GB 
 Оцінка фільму:   9.5/10 (Голосів: 14)
   
deus207 
Частий відвідувач


З нами з: 19.03.10
Востаннє: 18.10.19
Повідомлень: 41

2019-09-21 19:53  
У вас на 1.26.15 глюк з відеопотоком, після чого іде розсинхрон між аудіо та відео близько 2.5 сек.
Maters 
Відео Гуртом - підтримка та поширення
Відео Гуртом - підтримка та поширення


З нами з: 27.03.12
Востаннє: 19.10.19
Повідомлень: 1754

2019-09-21 21:15  
deus207
Ок, побачив. Глюк якийсь. Поправлю завтра.
Дякую ))

Nickolassssssss 
Поважний учасник


З нами з: 31.05.14
Востаннє: 18.10.19
Повідомлень: 150

2019-09-21 22:08  
Гарний фільм. І хоч розсинхрон не дав насолодитись стрічкою сповна, загальні враження позитивні.
Maters 
Відео Гуртом - підтримка та поширення
Відео Гуртом - підтримка та поширення


З нами з: 27.03.12
Востаннє: 19.10.19
Повідомлень: 1754

2019-09-25 23:41  
Оновив реліз. Не вийшло зробити по тій версії, яка була, бо кілька разів пробував і постійно один і той же глюк, тому перекодував з іншого релізу. Тепер розсинхрону нема!

White_123 
Поважний учасник


З нами з: 15.02.13
Востаннє: 16.10.19
Повідомлень: 169

2019-09-29 21:58  
Кому цікаво - це рімейк однойменного фільму 1976-го року. Коли був малим любив цей фільм (оригінал), але чи зайшов би він зараз - не знаю. Не охота перевіряти і знищувати приємні спогади дитинстваHappy
merime 
Свій


З нами з: 14.02.12
Востаннє: 16.10.19
Повідомлень: 58

2019-09-30 21:42  
Цілком пристойний бойовик. Погані нападають, хороші захищаються. В хороші через обставини потрапляють і погані, але вони не настільки погані, як ті, хто мали б бути хорошими, і від яких тепер потерпають справжні хороші. Гадаю, я досить зрозуміло переказав сюжет)
Ваш часовий пояс: GMT + 2 Години

Нова тема   Відповісти