Попелюшка. Змова у Смарагдовому Замку / Cinderella. Conspiracy at the Emerald Castle (1995) 1080p Ukr/Eng

Нові коментарі

Нова тема   Відповісти
Автор Повідомлення
ssTAss 
Модератор музики


З нами з: 05.07.08
Востаннє: 28.02.20
Повідомлень: 15903

2019-09-19 14:13  
Попелюшка. Змова у Смарагдовому Замку / Cinderella. Conspiracy at the Emerald Castle (1995) 1080p Ukr/Eng

Попелюшка. Змова у Смарагдовому Замку / Cinderella. Conspiracy at the Emerald Castle (1995) 1080p Ukr/Eng


Жанр: анімація
Країна: Італія



Кінокомпанія: Mondo TV
Режисер: Орландо Кораді
Актори: ?

Сюжет:
Смарагдовий Замок - королівський будинок Карла, але злий герцог Зарал готовий заволодіти троном і твердо вирішив усунути Карла, єдину справжню перешкоду для досягнення його мети.


Тривалість: 01:17:21
Якість:
Відео:
кодек: VP9
розмір кадру: 1920 х 1080
бітрейт: 2218 кб/с

Аудіо # 1:
мова: українська
переклад: двоголосий закадровий
кодек: 2.0
бітрейт: 192 кб/с

Аудіо # 2:
мова: англійська
переклад: оригінал
кодек: OPUS
бітрейт: 111 кб/с

Джерело озвучення:
Компанія КіТ
Info
General
Unique ID : 285919353241582582086669162220399865420 (0xD71A107D1801C77B27405AFB8563AE4C)
Complete name : Cinderella. Consipracy at the Emerald Castle (1995) 1080p [Ukr_Eng] [Hurtom].
Format :
Format version : Version 4
File size : 1.36 GiB
Duration : 1 h 17 min
Overall bit rate : 2 524 kb/s
Movie name : Попелюшка. Змова у Смарагдовому Замку (1995)
Encoded date : UTC 2019-09-19 10:44:16
Writing application : v36.0.0 ('Is That Jazz?') 32-bit
Writing library : libebml v1.3.9 + v1.5.2 / IDMmkvlib0.1
Cover : Yes
Attachments : cover.jpg
Language : und

Video
ID : 1
Format : VP9
Codec ID : V_VP9
Duration : 1 h 17 min
Bit rate : 2 218 kb/s
Width : 1 920 pixels
Height : 1 080 pixels
Display aspect ratio : 16:9
Frame rate mode : Constant
Frame rate : 25.000 FPS
Bits/(Pixel*Frame) : 0.043
Stream size : 1.20 GiB (88%)
Language : English
Default : Yes
Forced : No

Audio #1
ID : 2
Format : AC-3
Format/Info : Audio Coding 3
Commercial name : Dolby Digital
Codec ID : A_AC3
Duration : 1 h 17 min
Bit rate mode : Constant
Bit rate : 192 kb/s
Channel(s) : 2 channels
Channel layout : L R
Sampling rate : 48.0 kHz
Frame rate : 31.250 FPS (1536 SPF)
Bit depth : 16 bits
Compression mode : Lossy
Stream size : 106 MiB (8%)
Language : Ukrainian
Service kind : Complete Main
Default : Yes
Forced : Yes

Audio #2
ID : 3
Format : Opus
Codec ID : A_OPUS
Duration : 1 h 17 min
Bit rate : 111 kb/s
Channel(s) : 2 channels
Channel layout : L R
Sampling rate : 48.0 kHz
Frame rate : 50.000 FPS (960 SPF)
Compression mode : Lossy
Stream size : 61.3 MiB (4%)
Language : English
Default : No
Forced : No
Скріншоти





Джерело:


Срібний реліз (на рейтинг впливає 50% завантаженого)
 Трекер:    Зареєстрований   

Завантажити / скачати мультфільм українською



відео для новачків



 Зареєстрований:   2019-09-19 15:08
 Розмір:   1.36 GB 
 Оцінка мультфільму:   10/10 (Голосів: 2)
   
ssTAss 
Модератор музики


З нами з: 05.07.08
Востаннє: 28.02.20
Повідомлень: 15903

2019-09-19 14:25  
на imdb неправильно вказано рік і країну
іншого релізу там не знайшов

igor911 
Модератор відео


З нами з: 18.01.08
Востаннє: 28.02.20
Повідомлень: 14123

2019-09-19 14:58  
Цитата:
Попелюшка. Змова у Смарагдовому Замку / Cinderella. Consipracy at the Emerald Castle (1995) 1080p Ukr/Eng

виправив на "Попелюшка. Змова у Смарагдовому Замку / Cinderella. Conspiracy at the Emerald Castle (1995) 1080p Ukr/Eng"
ну і з роком мутка якась, на imdb крім помилки в назві, вказано ще й 2007 рік. Мабуть цю повнометражку італійці склепали по японо-італійському серіалу "Shinderera monogatari (1996)" https://www.imdb.com/title/tt0296328/

ssTAss 
Модератор музики


З нами з: 05.07.08
Востаннє: 28.02.20
Повідомлень: 15903

2019-09-19 15:16  
торент оновлено, виправлено помилку в назві
вибачте за незручності
igor911 написано:
ну і з роком мутка якась,

теж це зауважив і навмисно подав скрін кінця мульту
igor911 написано:
Мабуть цю повнометражку італійці склепали по японо-італійському серіалу "Shinderera monogatari (1996)" https://www.imdb.com/title/tt0296328/

та ні, це серіал по ньому зроблений або відразу так задумувалось
повнометражок є три https://www.mondotv.it/scheda-singola-cinderella-movies.html, а з них вже на серіал https://www.mondotv.it/scheda-singola-cinderella.html розбили (чи якось це все разом робилося)
думаю, просто на imdb ніхто нормально не прописав

Ваш часовий пояс: GMT + 2 Години

Нова тема   Відповісти