У гонитві за щастям / The Pursuit of Happyness (2006) AVC Ukr/Eng | Sub Eng

Нові коментарі

Нова тема   Відповісти
Автор Повідомлення
Anonymous 







2019-09-19 12:20  
У гонитві за щастям / The Pursuit of Happyness (2006) AVC Ukr/Eng | Sub Eng

У гонитві за щастям / The Pursuit of Happyness (2006) AVC Ukr/Eng | Sub Eng


Жанр: драма, біографічний
Країна: США



Кінокомпанія: Columbia Pictures Corporation, Relativity Media, Overbrook Entertainment
Режисер: Габріель Муччіно
Актори: Віл Сміт / Will Smith, Джейден Сміт / Jaden Smith, Тенді Ньютон / Thandie Newton, Брайан Хоу / Brian Howe, Джеймс Карен / James Karen, Ден Кастелланета / Dan Castellaneta, Курт Фуллер / Kurt Fuller, Такайо Фішер / Takayo Fischer, Кевін Вест / Kevin West, Джордж Чунг / George Cheung та інші

Сюжет:
Кріс Гарднер – батько-одинак. Виховуючи п'ятирічного сина, Кріс щосили прагне зробити так, щоб дитина росла щасливою. Працюючи продавцем, він не може сплатити квартиру, і їх виселяють. Опинившись на вулиці, але не бажаючи здаватися, батько влаштовується фахівцем в брокерську компанію. Тільки і там його прибутки далекі від нормальних. Але Кріс присягнувся собі в щоб-то не стало виростити сина, і ніякі труднощі його не зупинять.


Тривалість: 01:57:27
Якість: AVC
Відео:
кодек:
розмір кадру: 1032х430
бітрейт: 2171 кб/с

Аудіо # 1:
мова: українська
переклад: професійний дубльований | Невафільм Україна
кодек: 5.1
бітрейт: 448 кб/с
Інформація про дубляж
Перекладач: Тетяна Коробкова
Режисер дубляжу: Костянтин Лінартович
Звукоінженер: Боб Шевяков
Ролі дублювали: Вілл Сміт/Кріс Ґарднер — Дмитро Лінартович, Тенді Ньютон/Лінда — Олена Узлюк, Михайло Оводов, Василь Мазур, Олександр Ігнатуша, Валерій Легін, Олег Лепенець та інші.
Аудіо # 2:
мова: англійська
переклад: оригінал
кодек: 5.1
бітрейт: 448 кб/с

Субтитри:
мова: англійська
тип: програмні (м'які)
формат: srt
Info та log
Код:

Complete name               : The Pursuit of Happyness (2006) [Ukr,Eng sub.Eng] AVC [Hurtom].
Format                      :
Format version              : Version 4
File size                   : 2.52 GiB
Duration                    : 1 h 57 min
Overall bit rate            : 3 069 kb/s
Movie name                  : У гонитві за щастям / The Pursuit of Happyness (2006) [Ukr,Eng sub.Eng] AVC [Hurtom]
Encoded date                : UTC 2019-09-19 17:30:43
Writing application         : v37.0.0 ('Leave It') 64-bit
Writing library             : libebml v1.3.9 + v1.5.2
Cover                       : Yes
Attachments                 : cover.jpg

Video
ID                          : 1
Format                      : AVC
Format/Info                 : Advanced Video Codec
Format profile              : [email protected]
Format settings             : CABAC / 15 Ref Frames
Format settings, CABAC      : Yes
Format settings, Reference  : 15 frames
Codec ID                    : V_MPEG4/ISO/AVC
Duration                    : 1 h 57 min
Bit rate                    : 2 171 kb/s
Width                       : 1 032 pixels
Height                      : 430 pixels
Display aspect ratio        : 2.40:1
Frame rate mode             : Constant
Frame rate                  : 23.976 (24000/1001) FPS
Color space                 : YUV
Chroma subsampling          : 4:2:0
Bit depth                   : 8 bits
Scan type                   : Progressive
Bits/(Pixel*Frame)          : 0.204
Stream size                 : 1.78 GiB (71%)
Title                       : У гонитві за щастям / The Pursuit of Happyness (2006) AVC [Nitey]
Writing library             : core 148 r2692kMod 64f4e24
Encoding settings           : cabac=1 / ref=15 / deblock=1:-2:-1 / analyse=0x3:0x133 / me=umh / subme=11 / psy=1 / fade_compensate=0.00 / psy_rd=1.10:0.05 / mixed_ref=1 / me_range=32 / chroma_me=1 / trellis=2 / 8x8dct=1 / cqm=0 / deadzone=21,11 / fast_pskip=0 / chroma_qp_offset=-3 / threads=6 / lookahead_threads=1 / sliced_threads=0 / nr=0 / decimate=1 / interlaced=0 / bluray_compat=0 / constrained_intra=0 / fgo=0 / bframes=16 / b_pyramid=2 / b_adapt=2 / b_bias=0 / direct=1 / weightb=1 / open_gop=0 / weightp=2 / keyint=250 / keyint_min=23 / scenecut=40 / intra_refresh=0 / rc_lookahead=40 / rc=crf / mbtree=0 / crf=19.0000 / qcomp=0.65 / qpmin=0 / qpmax=69 / qpstep=4 / vbv_maxrate=62500 / vbv_bufsize=78125 / crf_max=0.0 / nal_hrd=none / filler=0 / ip_ratio=1.40 / pb_ratio=1.30 / aq=3:0.90 / zones=163600,168959,q=31
Language                    : English
Default                     : Yes
Forced                      : No
Color range                 : Limited
Matrix coefficients         : BT.709

Audio #1
ID                          : 2
Format                      : AC-3
Format/Info                 : Audio Coding 3
Commercial name             : Dolby Digital
Codec ID                    : A_AC3
Duration                    : 1 h 57 min
Bit rate mode               : Constant
Bit rate                    : 448 kb/s
Channel(s)                  : 6 channels
Channel layout              : L R C LFE Ls Rs
Sampling rate               : 48.0 kHz
Frame rate                  : 31.250 FPS (1536 SPF)
Compression mode            : Lossy
Stream size                 : 376 MiB (15%)
Title                       : Dub [Nevafilm Ukraine, DVD R5], 5.1 448 Kbps
Language                    : Ukrainian
Service kind                : Complete Main
Default                     : Yes
Forced                      : No

Audio #2
ID                          : 3
Format                      : AC-3
Format/Info                 : Audio Coding 3
Commercial name             : Dolby Digital
Codec ID                    : A_AC3
Duration                    : 1 h 57 min
Bit rate mode               : Constant
Bit rate                    : 448 kb/s
Channel(s)                  : 6 channels
Channel layout              : L R C LFE Ls Rs
Sampling rate               : 48.0 kHz
Frame rate                  : 31.250 FPS (1536 SPF)
Compression mode            : Lossy
Stream size                 : 376 MiB (15%)
Title                       : Original, 5.1 448 Kbps
Language                    : English
Service kind                : Complete Main
Default                     : No
Forced                      : No

Text
ID                          : 4
Format                      : UTF-8
Codec ID                    : S_TEXT/UTF8
Codec ID/Info               : UTF-8 Plain Text
Duration                    : 1 h 51 min
Bit rate                    : 60 b/s
Count of elements           : 1353
Stream size                 : 49.4 KiB (0%)
Language                    : English
Default                     : No
Forced                      : No

Menu
00:00:00.000                : en:Studio Logos
00:05:09.017                : en:One Day at a Time
00:12:36.255                : en:Riding the Bus
00:22:25.552                : en:Two Questions
00:28:09.896                : en:Being Stupid
00:33:33.928                : en:Making Contacts
00:41:18.434                : en:Birthday Wishes
00:48:15.517                : en:Ride Share
00:55:49.512                : en:Cab Fare
01:02:17.233                : en:Go Get Happy
01:09:20.364                : en:Parking Tickets
01:17:49.456                : en:Big Interview
01:24:34.235                : en:Second Thought
01:33:57.298                : en:Linda Is Leaving
01:41:19.239                : en:Packing Up
01:48:30.128                : en:Taking Care

Код:

[info]: frame I:980 Avg QP:18.00 size: 53154
[info]: frame P:38159 Avg QP:19.56 size: 22188
[info]: frame B:129821 Avg QP:21.31 size: 7805
[info]: consecutive B-frames: 1.7% 2.9% 9.4% 28.8% 18.0% 29.2% 4.1% 3.2% 0.7% 0.4% 0.3% 0.3% 0.2% 0.1% 0.1% 0.1% 0.3%
[info]: mb I I16..4: 5.1% 75.1% 19.8%
[info]: mb P I16..4: 0.5% 12.1% 1.8% P16..4: 29.9% 36.2% 12.4% 1.7% 0.1% skip: 5.2%
[info]: mb B I16..4: 0.0% 1.1% 0.2% B16..8: 38.4% 21.3% 3.6% direct: 4.6% skip:30.8% L0:43.8% L1:45.2% BI:11.0%
[info]: 8x8 transform intra:82.8% inter:64.3%
[info]: coded y,uvDC,uvAC intra: 93.3% 85.8% 61.1% inter: 27.3% 18.5% 4.9%
[info]: i16 v,h,dc,p: 25% 17% 5% 52%
[info]: i8 v,h,dc,ddl,ddr,vr,hd,vl,hu: 8% 9% 6% 10% 15% 14% 14% 12% 12%
[info]: i4 v,h,dc,ddl,ddr,vr,hd,vl,hu: 11% 10% 3% 8% 15% 15% 14% 12% 12%
[info]: i8c dc,h,v,p: 40% 22% 19% 18%
[info]: Weighted P-Frames: Y:3.9% UV:2.2%
[info]: ref P L0: 46.7% 11.9% 15.2% 5.5% 4.7% 3.3% 3.0% 1.6% 1.6% 1.2% 1.2% 1.0% 1.0% 0.9% 1.0% 0.0%
[info]: ref B L0: 77.1% 9.0% 4.5% 2.3% 1.6% 1.4% 1.1% 0.7% 0.6% 0.5% 0.4% 0.4% 0.3% 0.1%
[info]: ref B L1: 95.6% 4.4%
[info]: kb/s:2170.52
[info]: encoded 168960 frames, 7.42 fps, 2170.52 kb/s, duration 6:19:27.82



Джерело: &


 Трекер:    Зареєстрований   

Завантажити / скачати фільм українською



відео для новачків



 Зареєстрований:   2019-09-19 20:58
 Розмір:   2.52 GB 
 Оцінка фільму:   10/10 (Голосів: 10)
 ЗАЛИШАЙТЕСЬ ЯКОМОГА ДОВШЕ НА РОЗДАЧІ! ЗАВАНТАЖИВ САМ - ДАЙ ЗАВАНТАЖИТИ ІНШИМ!
   
bot 
робот


З нами з: 30.09.07
Востаннє: 26.05.05
Повідомлень: 22318

2019-09-19 20:58  
Тему перенесено з Анонси релізів до форуму Фільми


igor911

masiff 
Свій


З нами з: 06.12.16
Востаннє: 27.09.19
Повідомлень: 90

2019-09-20 16:08  
[̲̅t̲̅][̲̅h̲̅][̲̅e̲̅] [̲̅b̲̅][̲̅e̲̅][̲̅s̲̅][̲̅t̲̅]
Ваш часовий пояс: GMT + 2 Години

Нова тема   Відповісти