Таємниці Ґравіті Фоллс (Сезони 1-2) / Gravity Falls (Seasons 1-2) (2012-2016) 1080p Ukr/Eng | sub Eng

Нові коментарі

Нова тема   Відповісти
Автор Повідомлення
Anonymous 







2019-09-19 11:13  
Таємниці Ґравіті Фоллс (Сезони 1-2) / Gravity Falls (Seasons 1-2) (2012-2016) 1080p Ukr/Eng | sub Eng

Таємниці Ґравіті Фоллс (Сезони 1-2) / Gravity Falls (Seasons 1-2) (2012-2016) 1080p Ukr/Eng | sub Eng


Жанр: анімація, комедія, фентезі, жахи, детектив
Країна: США



Кінокомпанія: Disney Television Animation
Режисер: Джон Аошіма (John Aoshima), Джо Пітт (Joe Pitt), Аарон Спрінґер (Aaron Springer)
Актори/ролі озвучують: Джейсон Ріттер (Jason Ritter), Алекс Хірш (Alex Hirsch), Лінда Карделліні (Linda Cardellini), Кевін Майкл Річардсон (Kevin Michael Richardson), Ґрей ДеЛісл (Grey DeLisle), Ті Джей Міллер (T.J. Miller), Кейт Фергюсон (Keith Ferguson), Нейл Гамбургер (Neil Hamburger), Джон Ді Маджіоу (John Di Maggio)

Сюжет:
Мультсеріал розповідає про пригоди 12-річних близнюків Діппера і Мейбл, чиї літні плани рушаться, коли їхні батьки відправляють їх у містечко Гравіті Фоллс, штат Орегон, до дядька Стена. Але чи таке просте це місто? У місті відбуваються дивні речі, в яких їм треба розібратися. Родич, жителі і які ще таємниці чекають на цих першовідкривачів?


Тривалість: 1 серія: ~ 22 хв. (цілком серій: 20 + 20)
Перелік серій
Сезон 1
Серія - 1 - Турист в пастці
Серія - 2 - Легенда про чудовисько
Серія - 3 - Мисливці за головами
Серія - 4 - Рука, гойдаюча Мейбл
Серія - 5 - Соромливість
Серія - 6 - Діппер проти мужності
Серія - 7 - Двійник Діппера
Серія - 8 - Ірраціональний скарб
Серія - 9 - Порося мандрівника у часі
Серія - 10 - Бойові бійці
Серія - 11 - Маленький Діппер
Серія - 12 - Літоувін
Серія - 13 - Мейбл — босс
Серія - 14 - Бездонна яма
Серія - 15 - Саме дно
Серія - 16 - Килим спотикання
Серія - 17 - Шалені хлопці
Серія - 18 - Порося до початку часів
Серія - 19 - Стрибуни по сновидіннях
Серія - 20 - Ґідеон повертається

Сезон 2
Серія - 1 - Жахо-оке
Серія - 2 - Бункер
Серія - 3 - Гольфова війна
Серія - 4 - Шкарпетко-опера
Серія - 5 - Сус та справжня дівчина
Серія - 6 - Маленький магазин жахів
Серія - 7 - Товариство Сліпого ока
Серія - 8 - Гра Блендіна
Серія - 9 - Бог любові
Серія - 10 - Особняк Нортвестів
Серія - 11 - Не той, ким здається
Серія - 12 - Історія двох Стенів
Серія - 13 - Підземелля, підземелля і ще раз підземелля
Серія - 14 - Стенчжурський кандидат
Серія - 15 - Останній мейблоріг
Серія - 16 - Придорожня принада
Серія - 17 - Діппер і Мейбл проти майбутнього
Серія - 18 - Дивногеддон, частина 1
Серія - 19 - Дивногеддон 2: Втеча з реальності
Серія - 20 - Дивногеддон 3: Повернемо Фолз назад
Якість:
Відео:
кодек:
розмір кадру: 1920 х 1080
бітрейт: ~7500 кб/с
- сезон 1 автор ріпу SA89
- сезон 2 автор ріпу Sensetivity

Аудіо # 1:
мова: українська
переклад: професійний дубльований
кодек: 2.0
бітрейт: 192 кб/с

Аудіо # 2:
мова: англійська
переклад: оригінал
кодек: 2.0
бітрейт: ~600 кб/с

Джерело озвучення:
та

Субтитри:
мова: англійська
тип: програмні (м'які)
формат: *.srt
Info
Сезон 1

General
Unique ID : 236067536224136533725981389505263582747 (0xB198F4251AE54ECC9D5B7CAC48DC3E1B)
Complete name : D:\Torrents\Довготривлі роздачі\Gravity Falls Season [Hurtom] 1080p\Season 1\Gravity.Falls.S01E08.
Format :
Format version : Version 2
File size : 1.24 GiB
Duration : 21 min 34 s
Overall bit rate mode : Variable
Overall bit rate : 8 203 kb/s
Encoded date : UTC 2019-09-11 18:27:51
Writing application : v7.8.0 ('River Man') 32bit built on Apr 3 2015 12:11:22
Writing library : libebml v1.3.1 + v1.4.2
Attachments : poster.jpg

Video
ID : 1
Format : AVC
Format/Info : Advanced Video Codec
Format profile : [email protected]
Format settings, CABAC : Yes
Format settings, ReFrames : 4 frames
Codec ID : V_MPEG4/ISO/AVC
Duration : 21 min 34 s
Width : 1 920 pixels
Height : 1 080 pixels
Display aspect ratio : 16:9
Frame rate mode : Constant
Frame rate : 23.976 (24000/1001) FPS
Color space : YUV
Chroma subsampling : 4:2:0
Bit depth : 8 bits
Scan type : Progressive
Title : by SA89
Writing library : core 152 r2851 ba24899
Encoding settings : cabac=1 / ref=4 / deblock=1:-3:-3 / analyse=0x3:0x133 / me=umh / subme=10 / psy=1 / psy_rd=1.00:0.00 / mixed_ref=1 / me_range=24 / chroma_me=1 / trellis=2 / 8x8dct=1 / cqm=0 / deadzone=21,11 / fast_pskip=1 / chroma_qp_offset=-2 / threads=6 / lookahead_threads=1 / sliced_threads=0 / nr=0 / decimate=1 / interlaced=0 / bluray_compat=0 / constrained_intra=0 / bframes=8 / b_pyramid=2 / b_adapt=2 / b_bias=0 / direct=3 / weightb=1 / open_gop=0 / weightp=2 / keyint=250 / keyint_min=25 / scenecut=40 / intra_refresh=0 / rc_lookahead=60 / rc=crf / mbtree=0 / crf=17.5 / qcomp=0.60 / qpmin=0 / qpmax=69 / qpstep=4 / vbv_maxrate=62500 / vbv_bufsize=78125 / crf_max=0.0 / nal_hrd=none / filler=0 / ip_ratio=1.40 / pb_ratio=1.30 / aq=3:0.80
Language : English
Default : Yes
Forced : Yes

Audio #1
ID : 2
Format : AC-3
Format/Info : Audio Coding 3
Mode extension : CM (complete main)
Format settings, Endianness : Big
Codec ID : A_AC3
Duration : 21 min 34 s
Bit rate mode : Constant
Bit rate : 192 kb/s
Channel(s) : 2 channels
Channel positions : Front: L R
Sampling rate : 48.0 kHz
Frame rate : 31.250 FPS (1536 spf)
Bit depth : 16 bits
Compression mode : Lossy
Stream size : 29.6 MiB (2%)
Title : Дубляж @ 2.0 ПлюсПлюс
Language : Ukrainian
Default : Yes
Forced : Yes

Audio #2
ID : 3
Format :
Format/Info : Free Lossless Audio Codec
Codec ID : A_FLAC
Duration : 21 min 34 s
Bit rate mode : Variable
Channel(s) : 2 channels
Channel positions : Front: L R
Sampling rate : 48.0 kHz
Bit depth : 16 bits
Title : Оригінал @ 2.0
Writing library : libFLAC 1.2.1 (UTC 2007-09-17)
Language : English
Default : No
Forced : No

Text
ID : 4
Format : UTF-8
Codec ID : S_TEXT/UTF8
Codec ID/Info : UTF-8 Plain Text
Title :
Language : English
Default : No
Forced : No

Menu
00:00:00.000 : en:Chapter 01
00:01:24.251 : en:Chapter 02
00:07:24.152 : en:Chapter 03
00:12:43.471 : en:Chapter 04
00:21:03.762 : en:Chapter 05
Сезон 2

General
Unique ID : 211324844436775185212326746886412203438 (0x9EFBAF413FD4FAF9A5133594E78075AE)
Complete name : D:\Torrents\Довготривлі роздачі\Gravity Falls Season [Hurtom] 1080p\Season 2\Gravity.Falls.S02E08.
Format :
Format version : Version 2
File size : 1.39 GiB
Duration : 22 min 4 s
Overall bit rate mode : Variable
Overall bit rate : 9 003 kb/s
Encoded date : UTC 2019-09-19 07:09:17
Writing application : v7.8.0 ('River Man') 32bit built on Apr 3 2015 12:11:22
Writing library : libebml v1.3.1 + v1.4.2
Attachments : poster.jpg

Video
ID : 1
Format : AVC
Format/Info : Advanced Video Codec
Format profile : [email protected]
Format settings, CABAC : Yes
Format settings, ReFrames : 4 frames
Codec ID : V_MPEG4/ISO/AVC
Duration : 22 min 4 s
Width : 1 920 pixels
Height : 1 080 pixels
Display aspect ratio : 16:9
Frame rate mode : Constant
Frame rate : 23.976 (24000/1001) FPS
Color space : YUV
Chroma subsampling : 4:2:0
Bit depth : 8 bits
Scan type : Progressive
Title : by Sensetivity
Writing library : core 146 r2538 121396c
Encoding settings : cabac=1 / ref=4 / deblock=1:-3:-3 / analyse=0x3:0x133 / me=umh / subme=10 / psy=1 / psy_rd=1.00:0.10 / mixed_ref=1 / me_range=48 / chroma_me=1 / trellis=2 / 8x8dct=1 / cqm=0 / deadzone=21,11 / fast_pskip=1 / chroma_qp_offset=-6 / threads=12 / lookahead_threads=2 / sliced_threads=0 / nr=0 / decimate=1 / interlaced=0 / bluray_compat=0 / constrained_intra=0 / bframes=8 / b_pyramid=2 / b_adapt=2 / b_bias=0 / direct=3 / weightb=1 / open_gop=0 / weightp=2 / keyint=230 / keyint_min=23 / scenecut=40 / intra_refresh=0 / rc_lookahead=60 / rc=crf / mbtree=1 / crf=16.0 / qcomp=0.70 / qpmin=0 / qpmax=35 / qpstep=4 / ip_ratio=1.40 / aq=3:0.80
Language : English
Default : Yes
Forced : Yes

Audio #1
ID : 2
Format : AC-3
Format/Info : Audio Coding 3
Mode extension : CM (complete main)
Format settings, Endianness : Big
Codec ID : A_AC3
Duration : 22 min 4 s
Bit rate mode : Constant
Bit rate : 192 kb/s
Channel(s) : 2 channels
Channel positions : Front: L R
Sampling rate : 48.0 kHz
Frame rate : 31.250 FPS (1536 spf)
Bit depth : 16 bits
Compression mode : Lossy
Stream size : 30.3 MiB (2%)
Title : Дубляж @ 2.0 ПлюсПлюс
Language : Ukrainian
Default : Yes
Forced : Yes

Audio #2
ID : 3
Format :
Format/Info : Free Lossless Audio Codec
Codec ID : A_FLAC
Duration : 22 min 4 s
Bit rate mode : Variable
Channel(s) : 2 channels
Channel positions : Front: L R
Sampling rate : 48.0 kHz
Bit depth : 16 bits
Title : Оригінал @ 2.0
Writing library : Lavf53.19.0
Language : English
Default : No
Forced : No

Text
ID : 4
Format : UTF-8
Codec ID : S_TEXT/UTF8
Codec ID/Info : UTF-8 Plain Text
Language : English
Default : No
Forced : No

Menu
00:00:00.000 : en:Chapter 01
00:01:51.986 : en:Chapter 02
00:06:49.117 : en:Chapter 03
00:13:33.103 : en:Chapter 04
00:21:33.792 : en:Chapter 05
Скріншоти

Сезон 1












Сезон 2











Джерело:
Особиста оцінка: 8 - мені сподобалося



Золотий реліз (завантажене не впливає на рейтинг)
 Трекер:    Зареєстрований   

Завантажити / скачати мультфільм українською



відео для новачків



 Зареєстрований:   2019-09-19 11:14
 Розмір:   56.94 GB 
 Оцінка мультсеріалу:   10/10 (Голосів: 23)
   
leicheman 
Відео Гуртом - фільмокрай
Відео Гуртом - фільмокрай


З нами з: 03.07.14
Востаннє: 23.04.21
Повідомлень: 6155

2019-09-19 11:38  
Чомусь думав, що його залучили ще фанвокс. Але нажаль бачу, що тільки дубляж.
Хто вже дивився з нашим дубляжем там цензура присутня?

Anonymous 







2019-09-19 12:02  
leicheman
Це ж дитячий мультик. Де саме має бути цензура?
Можливо ви плутаєте із Рік та Морті?

leicheman 
Відео Гуртом - фільмокрай
Відео Гуртом - фільмокрай


З нами з: 03.07.14
Востаннє: 23.04.21
Повідомлень: 6155

2019-09-19 12:17  
Anonymous написано:
Це ж дитячий мультик. Де саме має бути цензура?

в москалів була цензура у кількох серій, а наші ж люблять мавпувати у них. тому і спитав)

Anonymous 







2019-09-19 12:19  
leicheman
Подумав, і здається згадав там наче два поліцаї гея, але то не точно.

Ваш часовий пояс: GMT + 2 Години

Нова тема   Відповісти