Вартові Галактики / Marvel's Guardians of the Galaxy (Сезон 1) (2015) 1080p Ukr/Eng

Нові коментарі

Нова тема   Відповісти
Автор Повідомлення
sergiyko.5 
VIP


З нами з: 25.02.16
Востаннє: 06.12.19
Повідомлень: 2803

2019-09-19 08:28  
Всі одноіменні релізи на трекері

Вартові Галактики / Marvel's Guardians of the Galaxy (Сезон 1) (2015) 1080p Ukr/Eng


Вартові Галактики / Marvel's Guardians of the Galaxy (Сезон 1) (2015) 1080p Ukr/Eng

Жанр: Супергероїка, Пригоди, Екшн, Наукова Фантастика
Країна: США
Кінокомпанія: Marvel Television, Disney XD
Актори: Will Friedle, Trevor Devall, Vanessa Marshall, Kevin Michael Richardson, David Sobolov

Сюжет:
Цю компанію об'єднує одне - кожен втратив для себе щось цінне. Хтось позбувся будинку, хтось залишився без сім'ї та друзів, а хтось просто втратив віру в свою мрію. Так чи інакше, всі вони були позбавлені нормального життя, але згуртувавшись разом, перетворилися на незламну команду Вартових Галактики. Неповторний Єнот, чий арсенал озброєння перевершує всі мислимі межі. Могутній Дракс, здатний розплющити черепушку однією рукою. Зеленошкіра дівчина-кіборг Гамора, що володіє всіма стилями рукопашного бою. Деревоподібний Грут, що віддає перевагу грубій силі. І сам Зоряний Лицар, що зміг згуртувати цю різношерсту банду. Всі вони готові ризикнути життям і піти на будь-яку авантюру, заради порятунку Галактики.



Тривалість: 1 серія: 22:26 (цілком серій: 26 з 26)
Якість:

Відео: кодек: розмір кадру: 1920 х 1080 бітрейт: 4000 кб/с
Аудіо # 1: (15-26 епізоди) мова: українська переклад: професійний дубльований кодек: 5.1 бітрейт: 384 кб/с
Аудіо # 2: (01-26 епізоди) мова: українська переклад: професійний дубльований кодек: 2.0 бітрейт: 192 кб/с
Озвучення: НЛО-ТБ
Аудіо # 3: мова: англійська переклад: оригінал кодек: 5.1 бітрейт: 384 кб/с
Перелік серій
01. Road to Knowhere
02. Knowhere to Run
03. One in a Million You
04. Take the Milano and Run
05. Cant Fight this Seedling
06. Undercover Angle
07. The Backstabbers
08. Hitchin a Ride
09. We Are Family
10. Bad Moon Rising
11. Space Cowboys
12. Crystal Blue Persuasion
13. Jingle Bell Rock
14. Stuck in the Metal with You
15. Dont Stop Believin
16. Accidents Will Happen
17. We Are the World Tree
18. Come and Gut Your Love
19. Asgard War Part One Lightnin Strikes
20. Asgard War Part Two Rescue Me
21. Fox on the Run
22. Inhuman Touch
23. Welcome Back
24. Ive Been Searching So Long
25. I Feel the Earth Move
26. Won't Get Fooled Again
Про файл:
General
Unique ID : 134366271007818619147959621556144605808 (0x651600A2DAB98752E14CEFEF8A1A8A70)
Complete name : D:\Documents\Torrents\MULTSER\Marvels. Guardians of the Galaxy S01 1080p \S01E01.Road.to.Knowhere.1080p..
Format :
Format version : Version 4
File size : 719 MiB
Duration : 22 min 25 s
Overall bit rate mode : Variable
Overall bit rate : 4 481 kb/s
Movie name : Marvels. Guardians of the Galaxy S01 1080p by sergiyko
Encoded date : UTC 2019-09-29 08:30:19
Writing application : v36.0.0 ('Is That Jazz?') 64-bit
Writing library : libebml v1.3.9 + v1.5.2

Video
ID : 1
Format : AVC
Format/Info : Advanced Video Codec
Format profile : [email protected]
Format settings : CABAC / 3 Ref Frames
Format settings, CABAC : Yes
Format settings, Reference : 3 frames
Codec ID : V_MPEG4/ISO/AVC
Duration : 22 min 25 s
Bit rate mode : Variable
Bit rate : 4 020 kb/s
Maximum bit rate : 6 030 kb/s
Width : 1 920 pixels
Height : 1 080 pixels
Display aspect ratio : 16:9
Frame rate mode : Constant
Frame rate : 23.976 (24000/1001) FPS
Color space : YUV
Chroma subsampling : 4:2:0
Bit depth : 8 bits
Scan type : Progressive
Bits/(Pixel*Frame) : 0.081
Stream size : 626 MiB (87%)
Title : S01E01.Road.to.Knowhere
Writing library : core 118
Encoding settings : cabac=1 / ref=3 / deblock=1:0:0 / analyse=0x1:0x111 / me=umh / subme=10 / psy=1 / psy_rd=1.00:0.00 / mixed_ref=1 / me_range=24 / chroma_me=1 / trellis=2 / 8x8dct=0 / cqm=0 / deadzone=21,11 / fast_pskip=1 / chroma_qp_offset=-2 / threads=8 / sliced_threads=0 / nr=0 / decimate=1 / interlaced=0 / bluray_compat=0 / constrained_intra=0 / bframes=2 / b_pyramid=0 / b_adapt=2 / b_bias=0 / direct=3 / weightb=1 / open_gop=0 / weightp=2 / keyint=48 / keyint_min=25 / scenecut=0 / intra_refresh=0 / rc_lookahead=0 / rc=2pass / mbtree=1 / bitrate=4020 / ratetol=1.0 / qcomp=0.50 / qpmin=6 / qpmax=51 / qpstep=4 / cplxblur=20.0 / qblur=0.5 / vbv_maxrate=6030 / vbv_bufsize=8040 / nal_hrd=vbr / ip_ratio=1.40 / aq=1:1.00
Language : English
Default : Yes
Forced : No

Audio #1
ID : 2
Format : AC-3
Format/Info : Audio Coding 3
Commercial name : Dolby Digital
Codec ID : A_AC3
Duration : 22 min 25 s
Bit rate mode : Constant
Bit rate : 192 kb/s
Channel(s) : 2 channels
Channel layout : L R
Sampling rate : 48.0 kHz
Frame rate : 31.250 FPS (1536 SPF)
Bit depth : 16 bits
Compression mode : Lossy
Stream size : 30.8 MiB (4%)
Title : DUB | NLO TV
Language : Ukrainian
Service kind : Complete Main
Default : Yes
Forced : Yes

Audio #2
ID : 3
Format : AC-3
Format/Info : Audio Coding 3
Commercial name : Dolby Digital
Codec ID : A_AC3
Duration : 22 min 25 s
Bit rate mode : Constant
Bit rate : 384 kb/s
Channel(s) : 6 channels
Channel layout : L R C LFE Ls Rs
Sampling rate : 48.0 kHz
Frame rate : 31.250 FPS (1536 SPF)
Bit depth : 16 bits
Compression mode : Lossy
Stream size : 61.6 MiB (9%)
Title : Original
Language : English
Service kind : Complete Main
Default : No
Forced : No
Скріншоти:


Запис/зведення: sergiyko


Бронзовий реліз (на рейтинг впливає 75% завантаженого)
 Трекер:    Зареєстрований   

Завантажити / скачати мультфільм українською



відео для новачків



 Зареєстрований:   2019-10-05 12:10
 Розмір:   20.09 GB 
 Оцінка мультсеріалу:   9/10 (Голосів: 8)
   
bot 
робот


З нами з: 30.09.07
Востаннє: 26.05.05
Повідомлень: 22589

2019-09-19 08:28  
Тему перенесено з Мультсеріали в HD до форуму Анонси релізів


sergiyko.5

bot 
робот


З нами з: 30.09.07
Востаннє: 26.05.05
Повідомлень: 22589

2019-09-29 13:19  
Тему перенесено з Анонси релізів до форуму Мультсеріали в HD


sergiyko.5

sergiyko.5 
VIP


З нами з: 25.02.16
Востаннє: 06.12.19
Повідомлень: 2803

2019-09-29 17:44  
Є прохання до фанатів цього мульта, потрібно правильно розмістити послідовність серій. Канал показав 12 серій згідно цьго списку https://en.wikipedia.org/wiki/List_of_Guardians_of_the_Galaxy_episodes#Season_1_(2015%E2%80%9316)
Потім показав серію Jingle Bell Rock яка або 26 або 21, і за нею 13 або 14 Stuck in the Metal With You.
В кого є бажання, можу надати серії для перегляду, щоб можливо, по змісту переглянутого визначити послідовність.

Додано через 16 хвилин 54 секунди:

https://fex.net/s/o2fbm7l

DDBj 
VIP


З нами з: 09.01.12
Востаннє: 06.12.19
Повідомлень: 670

2019-09-29 19:21  
sergiyko.5 написано:
Є прохання до фанатів цього мульта, потрібно правильно розмістити послідовність серій.


Канал показав згідно Европейського списку. Ось, точно так само показували поляки (скопіюйте посилання повністю):
http://www.dubbingpedia.pl/wiki/Stra%C5%BCnicy_Galaktyki_(serial_animowany)

У нас збігається переважна більшість нумерації показу диснеївського контенту. Можна, звісно, розмістити згідно американського показу.

sergiyko.5 
VIP


З нами з: 25.02.16
Востаннє: 06.12.19
Повідомлень: 2803

2019-09-29 19:49  
Додав 13 серію, стара 13 перейменована в 14.
3213211231233 
Новенький


З нами з: 28.01.17
Востаннє: 26.11.19
Повідомлень: 1

2019-09-30 11:58  
потрібна роздача
sergiyko.5 
VIP


З нами з: 25.02.16
Востаннє: 06.12.19
Повідомлень: 2803

2019-10-03 13:51  
Додав 15-22 серії.
sergiyko.5 
VIP


З нами з: 25.02.16
Востаннє: 06.12.19
Повідомлень: 2803

2019-10-05 12:12  
Додав 23-26 серії. В серіях 15-26 додано першою українську доріжку 5.1ch (власного виробництва).
Ваш часовий пояс: GMT + 2 Години

Нова тема   Відповісти