Гроші вирішують все / Money Talks (1997) 720p 2xUkr/Eng | Sub Eng

Нові коментарі

Нова тема   Відповісти
Останній раз роздавалося Doctor_Petrarka (2020-09-21)
Автор Повідомлення
Anonymous 







2019-09-19 08:07  
Гроші вирішують все / Money Talks (1997) 720p 2xUkr/Eng | Sub Eng

Гроші вирішують все / Money Talks (1997) 720p 2xUkr/Eng | Sub Eng


Жанр: комедія, бойовик, трилер, кримінальний
Країна: США



Кінокомпанія: New Line Cinema, Sheen/Michaels Entertainment
Режисер: Брет Ретнер / Brett Ratner
Актори: Кріс Такер / Chris Tucker, Чарлі Шин / Charlie Sheen, Гезер Локлір / Heather Locklear, Еліз Ніл / Elise Neal, Пол Сорвіно / Paul Sorvino, Девід Лі МакЛейн / David Lee McLain, Вік Ферейра / Vic Ferreira, Ґарі Бріґс / Gary Briggs, Ларі Генкін / Larry Hankin, Нейтан Андерсон / Nathan Anderson та інші

Сюжет:
Дрібний шахрай Френклін Гетчет раптово стає скандально відомим через підозру у вбивстві поліцейських. Він розшукується всією поліцією Сполучених Штатів. Єдиний, хто може йому допомогти, це журналіст-невдаха Джеймс Рассел. Тепер вони удвох перші в списку найрозшукуваніших злочинців...


Тривалість: 01:35:43
Якість: 720p
Відео:
кодек:
розмір кадру: 1280x536
бітрейт: 4069 кб/с

Аудіо # 1:
мова: українська
переклад: багатоголосий закадровий
кодек: 2.0
бітрейт: 192 кб/с

Аудіо # 2:
мова: українська
переклад: двоголосий закадровий
кодек: 2.0
бітрейт: 192 кб/с

Аудіо # 3:
мова: англійська
переклад: оригінал
кодек: 5.1
бітрейт: 384 кб/с

Субтитри:
мова: англійська
тип: програмні (м'які)
формат: *.srt
Info
General
Unique ID : 244477518386456974336101077668909484101 (0xB7ECA8475E5190EB935C143786130845)
Complete name : H:\Toloka\2019\Money Talks (1997) 720p.
Format :
Format version : Version 4
File size : 3.30 GiB
Duration : 1 h 35 min
Overall bit rate : 4 935 kb/s
Encoded date : UTC 2019-09-19 05:02:45
Writing application : v6.1.0 ('Old Devil') built on Mar 4 2013 09:10:42
Writing library : libebml v1.3.0 + v1.4.0

Video
ID : 1
Format : AVC
Format/Info : Advanced Video Codec
Format profile : [email protected]
Format settings : 2 Ref Frames
Format settings, CABAC : No
Format settings, RefFrames : 2 frames
Codec ID : V_MPEG4/ISO/AVC
Duration : 1 h 35 min
Bit rate : 4 069 kb/s
Width : 1 280 pixels
Height : 536 pixels
Display aspect ratio : 2.40:1
Frame rate mode : Constant
Frame rate : 23.976 FPS
Color space : YUV
Chroma subsampling : 4:2:0
Bit depth : 8 bits
Scan type : Progressive
Bits/(Pixel*Frame) : 0.247
Stream size : 2.72 GiB (82%)
Language : English
Default : Yes
Forced : No
Color range : Limited
Color primaries : BT.709
Transfer characteristics : BT.709
Matrix coefficients : BT.709

Audio #1
ID : 2
Format : AC-3
Format/Info : Audio Coding 3
Commercial name : Dolby Digital
Codec ID : A_AC3
Duration : 1 h 35 min
Bit rate mode : Constant
Bit rate : 192 kb/s
Channel(s) : 2 channels
Channel layout : L R
Sampling rate : 48.0 kHz
Frame rate : 31.250 FPS (1536 SPF)
Bit depth : 16 bits
Compression mode : Lossy
Stream size : 131 MiB (4%)
Title : UKR (Новий)
Language : Ukrainian
Service kind : Complete Main
Default : Yes
Forced : Yes

Audio #2
ID : 3
Format : AC-3
Format/Info : Audio Coding 3
Commercial name : Dolby Digital
Codec ID : A_AC3
Duration : 1 h 35 min
Bit rate mode : Constant
Bit rate : 192 kb/s
Channel(s) : 2 channels
Channel layout : L R
Sampling rate : 48.0 kHz
Frame rate : 31.250 FPS (1536 SPF)
Bit depth : 16 bits
Compression mode : Lossy
Stream size : 131 MiB (4%)
Title : UKR (1+1)
Language : Ukrainian
Service kind : Complete Main
Default : No
Forced : No

Audio #3
ID : 4
Format : AC-3
Format/Info : Audio Coding 3
Commercial name : Dolby Digital
Codec ID : A_AC3
Duration : 1 h 35 min
Bit rate mode : Constant
Bit rate : 384 kb/s
Channel(s) : 6 channels
Channel layout : L R C LFE Ls Rs
Sampling rate : 48.0 kHz
Frame rate : 31.250 FPS (1536 SPF)
Bit depth : 16 bits
Compression mode : Lossy
Stream size : 263 MiB (8%)
Language : English
Service kind : Complete Main
Default : No
Forced : No

Text
ID : 5
Format : UTF-8
Codec ID : S_TEXT/UTF8
Codec ID/Info : UTF-8 Plain Text
Language : English
Default : No
Forced : No

Menu
00:00:00.000 : en:Main Title
00:02:45.000 : en:Busted at the Car Wash
00:07:16.000 : en:Behind Bars
00:11:01.000 : en:The Escape
00:16:33.000 : en:On The Run
00:22:11.000 : en:Teaming Up
00:27:59.000 : en:"Ebony Man of the Month"
00:29:36.000 : en:Vic Damone
00:34:19.000 : en:Sweeps Week
00:36:56.000 : en:House Call
00:41:43.000 : en:A Night on the Town
00:47:07.000 : en:Paying Aaron a Visit
00:53:05.000 : en:Breakfast with the In-Laws
00:57:46.000 : en:Auto Auction
01:03:17.000 : en:Test Drive
01:07:41.000 : en:"It can't get no righter"
01:12:24.000 : en:Set Up at the Coliseum
01:15:15.000 : en:"Where are the diamonds?"
01:16:56.000 : en:The Chase is On
01:20:54.000 : en:Light on the Subject
01:23:27.000 : en:Fire in the Press Box
01:26:07.000 : en:"Come and get it!"
01:28:28.000 : en:"Peace out"
01:31:04.000 : en:End Credits
Скріншоти





За запис звуку з Нового каналу дякуємо пану Krigg070
За українську доріжку №2 подяка п.: servus12, omm

Особиста подяка пану denixx за надану матеріальну допомогу на підтримку цього і майбутніх релізів.
Джерело:


Срібний реліз (на рейтинг впливає 50% завантаженого)
 Трекер:    Зареєстрований   

Завантажити / скачати фільм українською



відео для новачків



 Зареєстрований:   2019-09-19 08:07
 Розмір:   3.3 GB 
 Оцінка фільму:   10/10 (Голосів: 8)
   
Інші релізи
Ваш часовий пояс: GMT + 2 Години

Нова тема   Відповісти