Чорнобиль (Сезон 1) / Chernobyl (Season 1) (2019) 1080p H.265 2xUkr/Eng | Sub Eng

Нові коментарі

Нова тема   Відповісти
Автор Повідомлення
Anonymous 







2019-09-18 23:46  
Чорнобиль (Сезон 1) / Chernobyl (Season 1) (2019) 1080p H.265 2xUkr/Eng | Sub Eng

Чорнобиль (Сезон 1) / Chernobyl (Season 1) (2019) 1080p H.265 2xUkr/Eng | Sub Eng


Жанр: історична драма
Країна: США, Велика Британія
Кінокомпанія: HBO, Sky Television
Режисер: Йоган Ренк / Johan Renck
Актори: Джаред Гарріс / Jared Harris, Стеллан Скашгорд / Stellan Skarsgård, Емілі Вотсон / Emily Watson, Пол Ріттер / Paul Ritter, Джессі Баклі / Jessie Buckley, Едріан Роллінс / Adrian Rawlins, Кон О'Ніл / Con O'Neill, Ральф Інесон / Ralph Ineson, Давид Денсік / David Dencik, Адам Нагайтіс / Adam Nagaitis та інші

Сюжет:
Британсько-американський історичний драматичний телевізійний міні-серіал від HBO. Події розгортаються після вибуху реактора на ЧАЕС у 1986 році. Головні герої спробують пояснити, чому трапилася катастрофа. Також у серіалі зображено евакуацію мешканців та хід рятувальної операції.

Тривалість: 1 серія: ~60 ÷ 72 хв. (цілком серій: 5)
Перелік серій, дата трансляції у США
1. 1:23:45, 06.05.19
2. Please Remain Calm, 13.05.19
3. Open Wide, O Earth, 20.05.19
4. The Happiness of All Mankind, 27.05.19
5. Vichnaya Pamyat, 03.06.19
Якість:

Відео:
кодек: H.265 (HEVC)
розмір кадру: 1920 x 960
бітрейт: 5 899 кб/с
бітова глибина: 10 біт

Увага! Перед завантаженням переконайтесь, що ваш пристрій відтворення (та/або ПЗ) підтримує H.265 (HEVC)

Аудіо # 1:
мова: українська
переклад: професійний дубльований
кодек: AC-3 2.0
бітрейт: 192 кб/с

Аудіо # 2:
мова: українська
переклад: багатоголосий закадровий | студія НеЗупиняйПродакшн
кодек: AC-3 5.1
бітрейт: 640 кб/с

Аудіо # 3:
мова: англійська
переклад: оригінал
кодек: 5.1
бітрейт: 1510 кб/с

Субтитри # 1: (Forced, by Петров Микола)
мова: українська
тип: програмні (м'які)
формат: *.srt

Субтитри # 2-3: (Повні, SDH)
мова: англійська,
тип: програмні (м'які)
формат: *.srt


Info
Код:
General
Unique ID                                : 128392921150035034139793955604324115106 (0x609793C009C68FE032D1017B0AB762A2)
Complete name                            : 02. Chernobyl (2019) - S01E02 - 1080p H.265 [2xUKR_ENG] [Hurtom].
Format                                   :
Format version                           : Version 4
File size                                : 3.59 GiB
Duration                                 : 1 h 3 min
Overall bit rate                         : 8 125 kb/s
Movie name                               : Chernobyl (2019) - S01E02 - Please Remain Calm
Encoded date                             : UTC 2019-09-18 19:29:39
Writing application                      : v20.0.0 ('I Am The Sun') 64-bit
Writing library                          : libebml v1.3.5 + v1.4.8
Cover                                    : Yes
Attachments                              : cover.jpg

Video
ID                                       : 1
Format                                   : HEVC
Format/Info                              : High Efficiency Video Coding
Format profile                           : Main [email protected]@High
Codec ID                                 : V_MPEGH/ISO/HEVC
Duration                                 : 1 h 2 min
Bit rate                                 : 5 899 kb/s
Width                                    : 1 920 pixels
Height                                   : 960 pixels
Display aspect ratio                     : 2.000
Frame rate mode                          : Constant
Frame rate                               : 25.000 FPS
Color space                              : YUV
Chroma subsampling                       : 4:2:0
Bit depth                                : 10 bits
Bits/(Pixel*Frame)                       : 0.128
Stream size                              : 2.56 GiB (71%)
Title                                    : Chernobyl (2019) - S01E02 - Please Remain Calm
Writing library                          : x265 3.1+11-de920e0a3183:[Windows][clang 8.0.1][64 bit] 10bit
Encoding settings                        : cpuid=1111039 / frame-threads=9 / numa-pools=8 / wpp / no-pmode / no-pme / no-psnr / no-ssim / log-level=3 / input-csp=1 / input-res=1920x960 / interlace=0 / total-frames=0 / level-idc=41 / high-tier=1 / uhd-bd=0 / ref=5 / allow-non-conformance / no-repeat-headers / annexb / no-aud / no-hrd / info / hash=0 / no-temporal-layers / open-gop / min-keyint=23 / keyint=240 / gop-lookahead=0 / bframes=12 / b-adapt=2 / b-pyramid / bframe-bias=0 / rc-lookahead=25 / lookahead-slices=4 / scenecut=40 / radl=0 / no-splice / no-intra-refresh / ctu=64 / min-cu-size=8 / rect / amp / max-tu-size=32 / tu-inter-depth=4 / tu-intra-depth=4 / limit-tu=0 / rdoq-level=2 / dynamic-rd=0.00 / no-ssim-rd / signhide / no-tskip / nr-intra=0 / nr-inter=0 / no-constrained-intra / strong-intra-smoothing / max-merge=3 / limit-refs=3 / limit-modes / me=3 / subme=7 / merange=57 / temporal-mvp / no-hme / weightp / weightb / no-analyze-src-pics / deblock=-3:-3 / no-sao / no-sao-non-deblock / rd=6 / no-early-skip / rskip / no-fast-intra / no-tskip-fast / no-cu-lossless / no-b-intra / no-splitrd-skip / rdpenalty=0 / psy-rd=2.00 / psy-rdoq=1.00 / no-rd-refine / no-lossless / cbqpoffs=0 / crqpoffs=0 / rc=crf / crf=18.0 / qcomp=0.65 / qpstep=4 / stats-write=0 / stats-read=0 / vbv-maxrate=50000 / vbv-bufsize=50000 / vbv-init=0.9 / crf-max=30.0 / crf-min=0.0 / ipratio=1.40 / pbratio=1.30 / aq-mode=2 / aq-strength=1.00 / cutree / zone-count=0 / no-strict-cbr / qg-size=32 / no-rc-grain / qpmax=69 / qpmin=0 / no-const-vbv / sar=1 / overscan=0 / videoformat=5 / range=0 / colorprim=1 / transfer=1 / colormatrix=1 / chromaloc=0 / display-window=0cll=0,0 / min-luma=0 / max-luma=1023 / log2-max-poc-lsb=8 / vui-timing-info / vui-hrd-info / slices=1 / no-opt-qp-pps / no-opt-ref-list-length-pps / no-multi-pass-opt-rps / scenecut-bias=0.05 / no-opt-cu-delta-qp / aq-motion / no-hdr / no-hdr-opt / no-dhdr10-opt / no-idr-recovery-sei / analysis-reuse-level=5 / scale-factor=0 / refine-intra=0 / refine-inter=0 / refine-mv=0 / refine-ctu-distortion=0 / no-limit-sao / ctu-info=0 / no-lowpass-dct / refine-analysis-type=0 / copy-pic=1 / max-ausize-factor=1.0 / no-dynamic-refine / no-single-sei / no-hevc-aq / no-svt / no-field / qp-adaptation-range=1.00
Language                                 : English
Default                                  : Yes
Forced                                   : No
Color range                              : Limited
Color primaries                          : BT.709
Transfer characteristics                 : BT.709
Matrix coefficients                      : BT.709

Audio #1
ID                                       : 2
Format                                   : AC-3
Format/Info                              : Audio Coding 3
Commercial name                          : Dolby Digital
Codec ID                                 : A_AC3
Duration                                 : 1 h 3 min
Bit rate mode                            : Constant
Bit rate                                 : 192 kb/s
Channel(s)                               : 2 channels
Channel layout                           : L R
Sampling rate                            : 48.0 kHz
Frame rate                               : 31.250 FPS (1536 SPF)
Bit depth                                : 16 bits
Compression mode                         : Lossy
Stream size                              : 86.7 MiB (2%)
Title                                    : ПД - 1+1 - 2.0 192 Kbps
Language                                 : Ukrainian
Service kind                             : Complete Main
Default                                  : Yes
Forced                                   : Yes

Audio #2
ID                                       : 3
Format                                   : AC-3
Format/Info                              : Audio Coding 3
Commercial name                          : Dolby Digital
Codec ID                                 : A_AC3
Duration                                 : 1 h 3 min
Bit rate mode                            : Constant
Bit rate                                 : 640 kb/s
Channel(s)                               : 6 channels
Channel layout                           : L R C LFE Ls Rs
Sampling rate                            : 48.0 kHz
Frame rate                               : 31.250 FPS (1536 SPF)
Bit depth                                : 16 bits
Compression mode                         : Lossy
Stream size                              : 289 MiB (8%)
Title                                    : БЗ - НеЗупиняйПродакшн - 5.1 640 Kbps
Language                                 : Ukrainian
Service kind                             : Complete Main
Default                                  : No
Forced                                   : No

Audio #3
ID                                       : 4
Format                                   :
Format/Info                              : Digital Theater Systems
Codec ID                                 : A_DTS
Duration                                 : 1 h 2 min
Bit rate mode                            : Constant
Bit rate                                 : 1 509 kb/s
Channel(s)                               : 6 channels
Channel layout                           : C L R Ls Rs LFE
Sampling rate                            : 48.0 kHz
Frame rate                               : 93.750 FPS (512 SPF)
Bit depth                                : 16 bits
Compression mode                         : Lossy
Stream size                              : 670 MiB (18%)
Title                                    : / 5.1 Ch / 1509 kbps / Original
Language                                 : English
Default                                  : No
Forced                                   : No

Text #1
ID                                       : 5
Format                                   : UTF-8
Codec ID                                 : S_TEXT/UTF8
Codec ID/Info                            : UTF-8 Plain Text
Duration                                 : 1 h 0 min
Bit rate                                 : 2 b/s
Count of elements                        : 20
Stream size                              : 1.04 KiB (0%)
Title                                    : Forced
Language                                 : Ukrainian
Default                                  : Yes
Forced                                   : Yes

Text #2
ID                                       : 6
Format                                   : UTF-8
Codec ID                                 : S_TEXT/UTF8
Codec ID/Info                            : UTF-8 Plain Text
Duration                                 : 59 min 29 s
Bit rate                                 : 57 b/s
Count of elements                        : 743
Stream size                              : 25.1 KiB (0%)
Title                                    : Full
Language                                 : English
Default                                  : No
Forced                                   : No

Text #3
ID                                       : 7
Format                                   : UTF-8
Codec ID                                 : S_TEXT/UTF8
Codec ID/Info                            : UTF-8 Plain Text
Duration                                 : 1 h 1 min
Bit rate                                 : 56 b/s
Count of elements                        : 777
Stream size                              : 25.6 KiB (0%)
Title                                    : SDH
Language                                 : English
Default                                  : No
Forced                                   : No

Menu
00:00:00.000                             : :Chapter 1
00:13:15.040                             : :Chapter 2
00:25:10.960                             : :Chapter 3
00:36:08.920                             : :Chapter 4
00:51:21.800                             : :Chapter 5
00:59:31.400                             : :Chapter 6
01:02:05.040                             : :Chapter 7
Світлини




Джерело: &
Особиста оцінка: 10 - без зайвих вагань рекомендую всім!

У релізі використано виправлені доріжки від 1+1 та НеЗупиняйПродакшн



Авторський реліз (завантажувати можна без реєстрації)
 Трекер:    Зареєстрований   

Завантажити / скачати серіал українською



відео для новачків



 Зареєстрований:   2019-09-18 23:46
 Розмір:   18.04 GB 
 Оцінка серіалу:   10/10 (Голосів: 12)
   
igor911 
Модератор відео


З нами з: 18.01.08
Востаннє: 22.10.19
Повідомлень: 13554

2019-09-19 00:00  
На teamhd і на інших сайтах були зауваження, що єдиний на сьогодні британський блурей 1080i поганої якості. Американський блурей анонсовано на 1 жовтня.
Ваш часовий пояс: GMT + 2 Години

Нова тема   Відповісти