За мрією / Teen Spirit (2018) 1080p H.265 Ukr/Eng | Sub Eng

Нові коментарі

Нова тема   Відповісти
Останній раз роздавалося pavluha0604 (2020-09-21)
Автор Повідомлення
Anonymous 







2019-09-18 22:25  
За мрією / Teen Spirit (2018) 1080p H.265 Ukr/Eng | Sub Eng

За мрією / Teen Spirit (2018) 1080p H.265 Ukr/Eng | Sub Eng


Жанр: драма, музичний
Країна: США, Велика Британія
Кінокомпанія: Automatik, Aperture Media Partners, Blank Tape
Режисер: Макс Мінгелла
Актори: Міллі Брейді, Ель Фаннінг, Ребекка Голл, Елізабет Беррінгтон, Златко Буріч, Вікторія Фейт

Сюжет:
На сором’язливу дівчину на ім’я Вайолет чекає участь у національному вокальному конкурсі, де вона повинна буде продемонструвати свій талант, а також впоратися з невпевненістю й перевірити свої амбіції. Героїня з дитинства мріє втекти зі свого невеликого містечка і стати популярною поп-зіркою. Можливо, цього разу її мрія здійсниться.


Тривалість: 01:33:53
Якість:

Відео:
кодек: H.265 (HEVC)
розмір кадру: 1920 x 800
бітрейт: 6927 кб/с
бітова глибина: 10 біт

Увага! Перед завантаженням переконайтесь, що ваш пристрій відтворення (та/або ПЗ) підтримує H.265 (HEVC)

Аудіо # 1:
мова: українська
переклад: професійний дубльований
кодек: AC-3 2.0
бітрейт: 192 кб/с

Аудіо # 2:
мова: англійська
переклад: оригінал
кодек: 5.1
бітрейт: 1510 кб/с

Субтитри # 1: (Forced)
мова: українська
тип: програмні (м'які)
формат: *.srt

Субтитри # 2-3: (Full, SDH)
мова: англійська
тип: програмні (м'які)
формат: *.srt


Info
Код:
General
Unique ID                                : 205465301940181790751073982863474893558 (0x9A932D8147D85BF8B0AB4DB8BDFF22F6)
Complete name                            : D:\Video\Teen Spirit (2018) 1080p H.265 [UKR_ENG] [Hurtom].
Format                                   :
Format version                           : Version 4
File size                                : 5.66 GiB
Duration                                 : 1 h 33 min
Overall bit rate                         : 8 631 kb/s
Movie name                               : За мрією / Teen Spirit (2018)
Encoded date                             : UTC 2019-09-18 18:28:30
Writing application                      : v20.0.0 ('I Am The Sun') 64-bit
Writing library                          : libebml v1.3.5 + v1.4.8
Cover                                    : Yes
Attachments                              : cover.jpeg

Video
ID                                       : 1
Format                                   : HEVC
Format/Info                              : High Efficiency Video Coding
Format profile                           : Main [email protected]@High
Codec ID                                 : V_MPEGH/ISO/HEVC
Duration                                 : 1 h 33 min
Bit rate                                 : 6 927 kb/s
Width                                    : 1 920 pixels
Height                                   : 800 pixels
Display aspect ratio                     : 2.40:1
Frame rate mode                          : Constant
Frame rate                               : 23.976 (24000/1001) FPS
Color space                              : YUV
Chroma subsampling                       : 4:2:0
Bit depth                                : 10 bits
Bits/(Pixel*Frame)                       : 0.188
Stream size                              : 4.54 GiB (80%)
Title                                    : За мрією / Teen Spirit (2018)
Language                                 : English
Default                                  : Yes
Forced                                   : No
Color range                              : Limited
Color primaries                          : BT.709
Transfer characteristics                 : BT.709
Matrix coefficients                      : BT.709

Audio #1
ID                                       : 2
Format                                   : AC-3
Format/Info                              : Audio Coding 3
Commercial name                          : Dolby Digital
Codec ID                                 : A_AC3
Duration                                 : 1 h 33 min
Bit rate mode                            : Constant
Bit rate                                 : 192 kb/s
Channel(s)                               : 2 channels
Channel layout                           : L R
Sampling rate                            : 48.0 kHz
Frame rate                               : 31.250 FPS (1536 SPF)
Bit depth                                : 16 bits
Compression mode                         : Lossy
Stream size                              : 129 MiB (2%)
Title                                    : / 2.0 Ch / 192 kbps / ПД / Megogo
Language                                 : Ukrainian
Service kind                             : Complete Main
Default                                  : Yes
Forced                                   : Yes

Audio #2
ID                                       : 3
Format                                   :
Format/Info                              : Digital Theater Systems
Codec ID                                 : A_DTS
Duration                                 : 1 h 33 min
Bit rate mode                            : Constant
Bit rate                                 : 1 509 kb/s
Channel(s)                               : 6 channels
Channel layout                           : C L R Ls Rs LFE
Sampling rate                            : 48.0 kHz
Frame rate                               : 93.750 FPS (512 SPF)
Bit depth                                : 24 bits
Compression mode                         : Lossy
Stream size                              : 1 013 MiB (17%)
Title                                    : / 5.1 Ch / 1509 kbps / Original
Language                                 : English
Default                                  : No
Forced                                   : No

Text #1
ID                                       : 4
Format                                   : UTF-8
Codec ID                                 : S_TEXT/UTF8
Codec ID/Info                            : UTF-8 Plain Text
Duration                                 : 36 s 993 ms
Bit rate                                 : 133 b/s
Count of elements                        : 18
Stream size                              : 619 Bytes (0%)
Title                                    : Forced
Language                                 : Ukrainian
Default                                  : Yes
Forced                                   : Yes

Text #2
ID                                       : 5
Format                                   : UTF-8
Codec ID                                 : S_TEXT/UTF8
Codec ID/Info                            : UTF-8 Plain Text
Duration                                 : 1 h 32 min
Bit rate                                 : 52 b/s
Count of elements                        : 1214
Stream size                              : 35.4 KiB (0%)
Title                                    : Full
Language                                 : English
Default                                  : No
Forced                                   : No

Text #3
ID                                       : 6
Format                                   : UTF-8
Codec ID                                 : S_TEXT/UTF8
Codec ID/Info                            : UTF-8 Plain Text
Duration                                 : 1 h 33 min
Bit rate                                 : 60 b/s
Count of elements                        : 1428
Stream size                              : 41.5 KiB (0%)
Title                                    : SDH
Language                                 : English
Default                                  : No
Forced                                   : No

Menu
00:00:00.000                             : en:Chapter 01
00:04:25.515                             : en:Chapter 02
00:08:19.416                             : en:Chapter 03
00:14:50.765                             : en:Chapter 04
00:19:28.667                             : en:Chapter 05
00:24:12.117                             : en:Chapter 06
00:27:05.749                             : en:Chapter 07
00:30:27.617                             : en:Chapter 08
00:34:23.061                             : en:Chapter 09
00:39:28.157                             : en:Chapter 10
00:44:32.169                             : en:Chapter 11
00:49:56.702                             : en:Chapter 12
00:54:09.121                             : en:Chapter 13
01:00:51.189                             : en:Chapter 14
01:06:30.737                             : en:Chapter 15
01:09:43.429                             : en:Chapter 16
01:13:07.383                             : en:Chapter 17
01:18:45.054                             : en:Chapter 18
01:22:50.716                             : en:Chapter 19
01:28:40.232                             : en:Chapter 20
Світлини




Дяка пану sergiyko за купівлю та зведення доріжки


 Трекер:    Зареєстрований   

Завантажити / скачати фільм українською



відео для новачків



 Зареєстрований:   2019-09-18 22:25
 Розмір:   5.66 GB 
 Оцінка фільму:   7.5/10 (Голосів: 4)
   
Інші релізи
   За мрією / Teen Spirit (2018) antik_2008  0 / 0   1.3 GB   2019-09-20 21:07 
   За мрією / Teen Spirit (2018) AVC Ukr/Eng | Sub Eng 11FrYkT  2 / 0   1.62 GB   2019-09-19 09:01 
   За мрією / Teen Spirit (2018) Remux 1080p Ukr/Eng | Sub Eng antik_2008  1 / 0   27.86 GB   2019-09-19 08:19 
   За мрією / Teen Spirit (2018) 1080p Ukr/Eng | Sub Eng -Star-Lord-  0 / 0   10.17 GB   2019-09-18 22:24 
   За мрією / Teen Spirit (2018) 720p Ukr/Eng | Sub Eng sergiyko.5  1 / 0   4.5 GB   2019-09-16 16:17 
Ваш часовий пояс: GMT + 2 Години

Нова тема   Відповісти