Домашні вогнища / Home Fires (Сезон 2) (2016) HDTV 1080p Ukr/Eng | sub Eng

Нові коментарі

Нова тема   Відповісти
Автор Повідомлення
sergiyko.5 
Забанено
Забанено


З нами з: 25.02.16
Востаннє: 29.10.20
Повідомлень: 3650

2019-09-18 12:33  
Домашні вогнища / Home Fires (Сезон 2) (2016) HDTV 1080p Ukr/Eng | sub Eng

Домашні вогнища / Home Fires (Сезон 2) (2016) HDTV 1080p Ukr/Eng | sub Eng

Жанр: драма, воєнний
Країна: Велика Британія
Режисер: Роберт Куінн, Брюс Гудісон
Актори: Саманта Бонд, Клер Келбрайт, Ед Стоппард, Деніел Райан, Фенелла Вулгар, Брайан Флетчер, Дейзі Баджер, Рут Геммелль

Сюжет:
Серіал про період, коли Англія ось-ось вступить в Другу світову війну. Головні персонажі живуть в селі Грейт Паксфорд, графства Чешир, і їх долі також не омине стороною прихід війни. Незабаром почнуться активні військові дії, а домашні вогнища, які так оберігалися, тепер ніколи не будуть такими як раніше. У всю міць працюють приймальні комісаріатів, чоловіки можуть відправитися на війну за першим покликом, і важко уявити які труднощі ляжуть на їхні плечі. Тепер жінки повинні розраховувати тільки на самих себе.




Тривалість: 1 серія: 00:46:12 (цілком серій: 6 з 6)
Якість: HDTV 1080р

Відео: кодек: розмір кадру: 1920 х 1080 бітрейт: 7200 кб/с
Аудіо # 1: мова: українська переклад: багатоголосий закадровий кодек: 2.0 бітрейт: 192 кб/с
Озвучення: Олександр Фурман і Ольга Гриськова
Аудіо # 2: мова: англійська переклад: оригінал кодек: 2.0 бітрейт: 384 кб/с
Субтитри: мова: англійська тип: програмні (м'які) формат: *.srt

Примітка: українська доріжка до четвертої серії має вади, післа повторної трансляції реліз буде оновлено.
Про файл:
General
Unique ID : 182752178850462143889737150246400077460 (0x897CCA13D34DBEC645C8F8595A68AE94)
Complete name : D:\Documents\Torrents\SERIAL\Home Fires S02 1080p HDTV\Home.Fires.S02E01.1080p.HDTV.Ukr.Eng.
Format :
Format version : Version 4
File size : 2.50 GiB
Duration : 46 min 11 s
Overall bit rate : 7 745 kb/s
Movie name : Home Fires S02 1080p HDTV by sergiyko
Encoded date : UTC 2019-09-17 14:17:01
Writing application : v36.0.0 ('Is That Jazz?') 64-bit
Writing library : libebml v1.3.9 + v1.5.2

Video
ID : 1
Format : AVC
Format/Info : Advanced Video Codec
Format profile : [email protected]
Format settings : CABAC / 4 Ref Frames
Format settings, CABAC : Yes
Format settings, Reference : 4 frames
Format settings, GOP : M=2, N=15
Codec ID : V_MPEG4/ISO/AVC
Duration : 46 min 11 s
Bit rate : 7 166 kb/s
Width : 1 920 pixels
Height : 1 080 pixels
Display aspect ratio : 16:9
Frame rate mode : Constant
Frame rate : 25.000 FPS
Color space : YUV
Chroma subsampling : 4:2:0
Bit depth : 8 bits
Scan type : Progressive
Bits/(Pixel*Frame) : 0.138
Stream size : 2.31 GiB (93%)
Title : Home.Fires.S02E01
Writing library : core 148 r2665 a01e339
Encoding settings : cabac=1 / ref=4 / deblock=1:0:0 / analyse=0x3:0x113 / me=umh / subme=8 / psy=1 / psy_rd=1.00:0.00 / mixed_ref=1 / me_range=16 / chroma_me=1 / trellis=1 / 8x8dct=1 / cqm=0 / deadzone=21,11 / fast_pskip=1 / chroma_qp_offset=-2 / threads=18 / lookahead_threads=3 / sliced_threads=0 / nr=0 / decimate=1 / interlaced=0 / bluray_compat=0 / constrained_intra=0 / bframes=3 / b_pyramid=2 / b_adapt=2 / b_bias=0 / direct=3 / weightb=1 / open_gop=0 / weightp=2 / keyint=250 / keyint_min=25 / scenecut=40 / intra_refresh=0 / rc_lookahead=50 / rc=crf / mbtree=1 / crf=17.0 / qcomp=0.60 / qpmin=0 / qpmax=69 / qpstep=4 / ip_ratio=1.40 / aq=1:1.00
Language : English
Default : Yes
Forced : No
Color range : Limited
Color primaries : BT.709
Transfer characteristics : BT.709
Matrix coefficients : BT.709

Audio #1
ID : 2
Format : AC-3
Format/Info : Audio Coding 3
Commercial name : Dolby Digital
Codec ID : A_AC3
Duration : 46 min 11 s
Bit rate mode : Constant
Bit rate : 192 kb/s
Channel(s) : 2 channels
Channel layout : L R
Sampling rate : 48.0 kHz
Frame rate : 31.250 FPS (1536 SPF)
Bit depth : 16 bits
Compression mode : Lossy
Stream size : 63.4 MiB (2%)
Title : MOV
Language : Ukrainian
Service kind : Complete Main
Default : Yes
Forced : Yes

Audio #2
ID : 3
Format : AC-3
Format/Info : Audio Coding 3
Commercial name : Dolby Digital
Codec ID : A_AC3
Duration : 46 min 11 s
Bit rate mode : Constant
Bit rate : 384 kb/s
Channel(s) : 2 channels
Channel layout : L R
Sampling rate : 48.0 kHz
Frame rate : 31.250 FPS (1536 SPF)
Bit depth : 16 bits
Compression mode : Lossy
Delay relative to video : 240 ms
Stream size : 127 MiB (5%)
Title : Original
Language : English
Service kind : Complete Main
Default : No
Forced : No

Text
ID : 4
Format : UTF-8
Codec ID : S_TEXT/UTF8
Codec ID/Info : UTF-8 Plain Text
Duration : 44 min 45 s
Bit rate : 66 b/s
Count of elements : 554
Stream size : 21.8 KiB (0%)
Language : English
Default : No
Forced : No
Скріншоти:


Запис/зведення: sergiyko


Бронзовий реліз (на рейтинг впливає 75% завантаженого)
 Трекер:    Зареєстрований   

Завантажити / скачати серіал українською



відео для новачків



 Зареєстрований:   2019-09-18 12:33
 Розмір:   14.25 GB 
 Оцінка серіалу:   9.7/10 (Голосів: 6)
   
Ваш часовий пояс: GMT + 2 Години

Нова тема   Відповісти