День незалежності [Розширена відновлена версія] / Independence Day [Extended cut Remastered] (1996) AVC 2xUkr/Eng | Sub Eng

Нові коментарі

Нова тема   Відповісти
Автор Повідомлення
Anonymous 







2019-09-17 14:17  
День незалежності [Розширена відновлена версія] / Independence Day [Extended cut, Remastered] (1996) AVC 2xUkr/Eng | Sub Eng

День незалежності [Розширена відновлена версія] / Independence Day [Extended cut Remastered] (1996) AVC 2xUkr/Eng | Sub Eng


Жанр: фантастика, трилер, пригодницький, екшн
Країна: США

Оскар, 3 премії Сатурн, премія каналу MTV



Кінокомпанія: Centropolis Entertainment, Twentieth Century Fox Film Corporation
Режисер: Роланд Еммеріх / Roland Emmerich
Актори: Вілл Сміт / Will Smith, Біл Пулман / Bill Pullman, Джеф Ґолдблюм / Jeff Goldblum, Mary McDonnell / Mary McDonnell, Джудд Хірш / Judd Hirsch, Роберт Лоджа / Robert Loggia, Ренді Куейд / Randy Quaid, Маргарет Колін / Margaret Colin, Вівіка А. Фокс / Vivica A. Fox, Джеймс Ребхорн / James Rebhorn, Харві Фірстейн / Harvey Fierstein, Адам Болдуїн / Adam Baldwin, Брент Спайнер / Brent Spiner, Джеймс Дювал / James Duval, Ліза Джакуб / Lisa Jakub та інші

Сюжет:
На Землі приймається сигнал, надісланий джерелом явно неземного походження. Джерело це наближається, і на «вуха» піднімається вся планета. Ніхто, правда, не чекав, що інопланетяни виявляться такими величезними і в такій кількості.


Тривалість: 02:33:33 [Розширена версія] - порівняння з театральною версією
Якість: AVC [Remastered]
Відео:
кодек:
розмір кадру: 1024x428
бітрейт: 3500 кб/с

Аудіо # 1: ,
мова: українська
переклад: двоголосий закадровий з вставками оригіналу
кодек: 2.0
бітрейт: 192 кб/с
ролі озвучили: Олександр Завальський і Тетяна Антонова?

Аудіо # 2:
мова: українська
переклад: двоголосий закадровий з вставками оригіналу
кодек: 2.0
бітрейт: 192 кб/с
ролі озвучили: Олег Лепенець і Людмила Ардельян

Аудіо # 3:
мова: англійська
переклад: оригінал
кодек: 5.1
бітрейт: 448 кб/с

Субтитри # 1:
мова: українська (на неозвучені епізоди розширеної версії)
тип: програмні (м'які)
формат: *.srt

Субтитри # 2-3:
мова: англійська (повні, SDH)
тип: програмні (м'які)
формат: *.srt

Присутні поіменовані оригінальні розділи, як на Blu-ray*
Info
Код:

Complete name               : Independence Day [Extended cut, Remastered] (1996) [2xUkr,Eng sub.Eng] AVC [Hurtom].
Format                      :
Format version              : Version 4
File size                   : 4.65 GiB
Duration                    : 2 h 33 min
Overall bit rate            : 4 333 kb/s
Movie name                  : День незалежності [Розширена відновлена версія] / Independence Day [Extended cut, Remastered] (1996) [2xUkr,Eng sub.Eng] AVC [Hurtom]
Encoded date                : UTC 2019-09-17 18:07:15
Writing application         : v37.0.0 ('Leave It') 64-bit
Writing library             : libebml v1.3.9 + v1.5.2
Cover                       : Yes
Attachments                 : cover.jpg

Video
ID                          : 1
Format                      : AVC
Format/Info                 : Advanced Video Codec
Format profile              : [email protected]
Format settings             : CABAC / 13 Ref Frames
Format settings, CABAC      : Yes
Format settings, Reference  : 13 frames
Codec ID                    : V_MPEG4/ISO/AVC
Duration                    : 2 h 33 min
Bit rate                    : 3 500 kb/s
Width                       : 1 024 pixels
Height                      : 428 pixels
Display aspect ratio        : 2.40:1
Frame rate mode             : Constant
Frame rate                  : 23.976 (24000/1001) FPS
Color space                 : YUV
Chroma subsampling          : 4:2:0
Bit depth                   : 8 bits
Scan type                   : Progressive
Bits/(Pixel*Frame)          : 0.333
Stream size                 : 3.75 GiB (81%)
Title                       : День незалежності [Розширена відновлена версія] / Independence Day [Extended cut, Remastered] (1996) AVC [MediaClub]
Writing library             : core 148 r2638 7599210
Encoding settings           : cabac=1 / ref=13 / deblock=1:-3:-3 / analyse=0x3:0x113 / me=umh / subme=11 / psy=1 / psy_rd=1.05:0.15 / mixed_ref=1 / me_range=48 / chroma_me=1 / trellis=2 / 8x8dct=1 / cqm=0 / deadzone=21,11 / fast_pskip=0 / chroma_qp_offset=-3 / threads=6 / lookahead_threads=1 / sliced_threads=0 / nr=0 / decimate=0 / interlaced=0 / bluray_compat=0 / constrained_intra=0 / bframes=12 / b_pyramid=2 / b_adapt=2 / b_bias=0 / direct=3 / weightb=1 / open_gop=0 / weightp=2 / keyint=240 / keyint_min=23 / scenecut=40 / intra_refresh=0 / rc_lookahead=40 / rc=2pass / mbtree=0 / bitrate=3500 / ratetol=1.0 / qcomp=0.60 / qpmin=0 / qpmax=69 / qpstep=4 / cplxblur=20.0 / qblur=0.5 / vbv_maxrate=50000 / vbv_bufsize=62500 / nal_hrd=none / filler=0 / ip_ratio=1.40 / pb_ratio=1.30 / aq=3:0.80
Language                    : English
Default                     : Yes
Forced                      : No
Color range                 : Limited
Color primaries             : BT.709
Transfer characteristics    : BT.709
Matrix coefficients         : BT.709

Audio #1
ID                          : 2
Format                      : AC-3
Format/Info                 : Audio Coding 3
Commercial name             : Dolby Digital
Codec ID                    : A_AC3
Duration                    : 2 h 33 min
Bit rate mode               : Constant
Bit rate                    : 192 kb/s
Channel(s)                  : 2 channels
Channel layout              : L R
Sampling rate               : 48.0 kHz
Frame rate                  : 31.250 FPS (1536 SPF)
Compression mode            : Lossy
Stream size                 : 211 MiB (4%)
Title                       : DVO [1+1, TET], 2.0 192 Kbps
Language                    : Ukrainian
Service kind                : Complete Main
Default                     : Yes
Forced                      : No

Audio #2
ID                          : 3
Format                      : AC-3
Format/Info                 : Audio Coding 3
Commercial name             : Dolby Digital
Codec ID                    : A_AC3
Duration                    : 2 h 33 min
Bit rate mode               : Constant
Bit rate                    : 192 kb/s
Channel(s)                  : 2 channels
Channel layout              : L R
Sampling rate               : 48.0 kHz
Frame rate                  : 31.250 FPS (1536 SPF)
Compression mode            : Lossy
Stream size                 : 211 MiB (4%)
Title                       : DVO [ICTV], 2.0 192 Kbps
Language                    : Ukrainian
Service kind                : Complete Main
Default                     : No
Forced                      : No

Audio #3
ID                          : 4
Format                      : AC-3
Format/Info                 : Audio Coding 3
Commercial name             : Dolby Digital
Codec ID                    : A_AC3
Duration                    : 2 h 33 min
Bit rate mode               : Constant
Bit rate                    : 448 kb/s
Channel(s)                  : 6 channels
Channel layout              : L R C LFE Ls Rs
Sampling rate               : 48.0 kHz
Frame rate                  : 31.250 FPS (1536 SPF)
Compression mode            : Lossy
Stream size                 : 492 MiB (10%)
Title                       : Original, 5.1 448 Kbps
Language                    : English
Service kind                : Complete Main
Default                     : No
Forced                      : No

Text #1
ID                          : 5
Format                      : UTF-8
Codec ID                    : S_TEXT/UTF8
Codec ID/Info               : UTF-8 Plain Text
Duration                    : 2 h 18 min
Bit rate                    : 9 b/s
Count of elements           : 190
Stream size                 : 10.1 KiB (0%)
Title                       : Ukr Forced
Language                    : Ukrainian
Default                     : Yes
Forced                      : Yes

Text #2
ID                          : 6
Format                      : UTF-8
Codec ID                    : S_TEXT/UTF8
Codec ID/Info               : UTF-8 Plain Text
Duration                    : 2 h 23 min
Bit rate                    : 60 b/s
Count of elements           : 1726
Stream size                 : 63.7 KiB (0%)
Title                       : Eng Full
Language                    : English
Default                     : No
Forced                      : No

Text #3
ID                          : 7
Format                      : UTF-8
Codec ID                    : S_TEXT/UTF8
Codec ID/Info               : UTF-8 Plain Text
Duration                    : 2 h 23 min
Bit rate                    : 60 b/s
Count of elements           : 1787
Stream size                 : 63.7 KiB (0%)
Title                       : Eng SDH
Language                    : English
Default                     : No
Forced                      : No

Menu
00:00:00.000                : en:Opening Titles/July 2
00:02:43.872                : en:Contact
00:05:01.467                : en:At the White House
00:07:32.577                : en:Approaching Earth
00:08:02.315                : en:Chess Game
00:09:21.602                : en:Compact Cable Chaos
00:10:29.879                : en:Imperial Valley, California
00:12:06.600                : en:Deployment/Def Con 3
00:14:08.514                : en:A Technical Kiss
00:14:56.729                : en:Visual Range
00:18:56.969                : en:The Code for Panic
00:25:33.114                : en:Wake Up Call
00:27:23.725                : en:Countdown to Extinction
00:30:10.808                : en:Duty Calls
00:32:18.102                : en:Get Out of Town
00:34:12.633                : en:Trailer Camp Confrontation
00:36:39.405                : en:Fighter Pilots Report
00:38:17.378                : en:Strip Club
00:40:05.110                : en:Nice Driving
00:41:02.167                : en:Look Up the Number
00:41:33.449                : en:Attempts to Communicate
00:44:15.611                : en:The White House Legacy
00:44:37.925                : en:The Clock Is Ticking
00:46:02.801                : en:Communication Breakdown
00:48:48.008                : en:Panic or Party
00:50:42.038                : en:Time's Up
00:54:22.717                : en:July 3
00:57:22.480                : en:Battle Plans
00:58:05.148                : en:First Attack
01:03:10.995                : en:Two on Two
01:04:30.157                : en:Canyon Chase
01:06:00.748                : en:Welcome to Earth
01:06:52.967                : en:Desert Rv Caravan
01:08:20.012                : en:The Truth Is Out There
01:11:22.027                : en:Urban Survivors
01:12:50.324                : en:Do You Know the Way to Area 51?
01:14:38.140                : en:Area 51
01:18:29.537                : en:The Freak Show
01:21:19.207                : en:Inside the Alien Attacker
01:23:04.729                : en:Arriving with the Alien
01:25:59.779                : en:In the Ruins of El Toro
01:27:49.680                : en:Alien Surgery
01:35:25.260                : en:Nuclear Attack
01:38:52.217                : en:Rescue at El Toro
01:39:55.572                : en:The First Lady's Death
01:42:51.790                : en:July 4
01:49:33.233                : en:Worldwide Plans
01:53:25.339                : en:A Wedding
01:55:01.060                : en:Independence Day
01:59:38.754                : en:Using the Alien Attacker
02:04:03.394                : en:Into the Mother Ship
02:07:41.403                : en:Engage the Enemy
02:10:50.675                : en:Adversity Makes Strange Bedfellows
02:11:52.612                : en:Time for a Hero
02:17:21.316                : en:Execute 'Jolly Roger'
02:21:17.343                : en:Victory
02:24:48.679                : en:Credits



Джерело: &
Особиста оцінка: 7 - мені сподобалося

Подяка п.Demrandir'у за українські доріжки та субтитри до розширеної версії. Синхронізація під блурей та оптимізація субтитрів: igor911, українізація постера: realNitro.

*подяка сайту chapterdb.plex.tv


Срібний реліз (на рейтинг впливає 50% завантаженого)
 Трекер:    Зареєстрований   

Завантажити / скачати фільм українською



відео для новачків



 Зареєстрований:   2019-09-17 21:28
 Розмір:   4.65 GB 
 Оцінка фільму:   9.1/10 (Голосів: 13)
 ЗАЛИШАЙТЕСЬ ЯКОМОГА ДОВШЕ НА РОЗДАЧІ! ЗАВАНТАЖИВ САМ - ДАЙ ЗАВАНТАЖИТИ ІНШИМ!
   
bot 
робот


З нами з: 30.09.07
Востаннє: 26.05.05
Повідомлень: 22323

2019-09-17 21:28  
Тему перенесено з Анонси релізів до форуму Фільми


igor911

Ваш часовий пояс: GMT + 2 Години

Нова тема   Відповісти