Смерть та життя Джона Ф. Донована / The Death and Life of John F. Donovan (2018) 1080p Ukr/Eng

Нові коментарі

Нова тема   Відповісти
Автор Повідомлення
Anonymous 







2019-09-17 11:16  
Смерть та життя Джона Ф. Донована / The Death and Life of John F. Donovan (2018) 1080p Ukr/Eng



Жанр: драма
Країна: Канада, Велика Британія



Кінокомпанія: Lyla Films, Sons of Manual, Warp Films
Режисер: Ксав'є Долан / Xavier Dolan
Актори: Кіт Герінгтон / Kit Harington, Наталі Портман / Natalie Portman, Емілі Хемпшир / Emily Hampshire, Джейкоб Трембле / Jacob Tremblay, Сара Гейдон / Sarah Gadon, Тенді Ньютон / Thandie Newton, Джаред Кісо / Jared Keeso, Сьюзан Серендон / Susan Sarandon, Кеті Бейтс / Kathy Bates, Майкл Гембон / Michael Gambon та інші

Сюжет:
У центрі сюжету - зоряний американський актор Джон Донован, який вступив в листування з 11-річним хлопчиком-актором з Англії. Це призвело до непоправних наслідків в житті обох і спровокувало бурхливу реакцію громадськості.
Офіційний український трейлер:

Вікова категорія: 16+
Тривалість: 01:58:26
Якість: 1080р

Відео:
кодек:
розмір кадру: 1920х804
бітрейт: 4585 кб/с

Аудіо # 1:
мова: українська
переклад: професійний дубльований | студія ААА-sound
кодек: 5.1
бітрейт: 384 кб/с
Інформація про дубляж
Перекладач: Олексій Кондратюк
Режисер дубляжу та звукорежисер перезапису: Олександр Єфімов
Ролі дублювали: Павло Скороходько, Юлія Перенчук, Іван Розін, Катерина Сергеєва, Дмитро Сова, Антоніна Хижняк, Юрій Ребрик, Катерина Брайковська, Роман Чорний, Катерина Буцька, Михайло Тишин, Наталя Поліщук, Олена Узлюк та інші.

Фільм дубльовано студією ААА-sound у 2019 році на замовлення компанії "Вольга Україна".
Аудіо # 2:
мова: англійська
переклад: оригінал
кодек: 5.1
бітрейт: 384 кб/с

Збережено оригінальні розділи
Info
Код:

Complete name               : The Death and Life of John F. Donovan (2018) [Ukr,Eng] 1080p [Hurtom].
Format                      :
Format version              : Version 4
File size                   : 4.43 GiB
Duration                    : 1 h 58 min
Overall bit rate            : 5 351 kb/s
Movie name                  : Смерть та життя Джона Ф. Донована / The Death and Life of John F. Donovan (2018) [Ukr,Eng] 1080p [Hurtom]
Encoded date                : UTC 2019-09-18 06:20:15
Writing application         : v37.0.0 ('Leave It') 64-bit
Writing library             : libebml v1.3.9 + v1.5.2
Cover                       : Yes
Attachments                 : cover.jpg

Video
ID                          : 1
Format                      : AVC
Format/Info                 : Advanced Video Codec
Format profile              : [email protected]
Format settings             : CABAC / 5 Ref Frames
Format settings, CABAC      : Yes
Format settings, Reference  : 5 frames
Codec ID                    : V_MPEG4/ISO/AVC
Duration                    : 1 h 58 min
Bit rate                    : 4 585 kb/s
Width                       : 1 920 pixels
Height                      : 804 pixels
Display aspect ratio        : 2.40:1
Frame rate mode             : Constant
Frame rate                  : 25.000 FPS
Color space                 : YUV
Chroma subsampling          : 4:2:0
Bit depth                   : 8 bits
Scan type                   : Progressive
Bits/(Pixel*Frame)          : 0.119
Stream size                 : 3.79 GiB (86%)
Title                       : Смерть та життя Джона Ф. Донована / The Death and Life of John F. Donovan (2018) 1080p [BlueBird]
Language                    : English
Default                     : Yes
Forced                      : No
Color range                 : Limited
Color primaries             : BT.709
Transfer characteristics    : BT.709
Matrix coefficients         : BT.709

Audio #1
ID                          : 2
Format                      : AC-3
Format/Info                 : Audio Coding 3
Commercial name             : Dolby Digital
Codec ID                    : A_AC3
Duration                    : 1 h 58 min
Bit rate mode               : Constant
Bit rate                    : 384 kb/s
Channel(s)                  : 6 channels
Channel layout              : L R C LFE Ls Rs
Sampling rate               : 48.0 kHz
Frame rate                  : 31.250 FPS (1536 SPF)
Compression mode            : Lossy
Stream size                 : 325 MiB (7%)
Title                       : Dub [ААА-sound, iTunes], 5.1 384 Kbps
Language                    : Ukrainian
Service kind                : Complete Main
Default                     : Yes
Forced                      : No

Audio #2
ID                          : 3
Format                      : AC-3
Format/Info                 : Audio Coding 3
Commercial name             : Dolby Digital
Codec ID                    : A_AC3
Duration                    : 1 h 58 min
Bit rate mode               : Constant
Bit rate                    : 384 kb/s
Channel(s)                  : 6 channels
Channel layout              : L R C LFE Ls Rs
Sampling rate               : 48.0 kHz
Frame rate                  : 31.250 FPS (1536 SPF)
Compression mode            : Lossy
Stream size                 : 326 MiB (7%)
Title                       : Original, 5.1 384 Kbps
Language                    : English
Service kind                : Complete Main
Default                     : No
Forced                      : No

Menu
00:00:00.000                : en:Chapter 1
00:08:23.200                : en:Chapter 2
00:16:28.480                : en:Chapter 3
00:24:37.640                : en:Chapter 4
00:32:48.120                : en:Chapter 5
00:41:12.720                : en:Chapter 6
00:49:46.720                : en:Chapter 7
00:58:10.080                : en:Chapter 8
01:06:40.640                : en:Chapter 9
01:14:52.840                : en:Chapter 10
01:23:09.040                : en:Chapter 11
01:31:32.720                : en:Chapter 12
01:40:05.879                : en:Chapter 13
01:48:38.639                : en:Chapter 14



Джерело: &


 Трекер:    Зареєстрований   

Завантажити / скачати фільм українською



відео для новачків



 Зареєстрований:   2019-09-18 08:55
 Розмір:   4.43 GB 
 Оцінка фільму:   7.7/10 (Голосів: 9)
   
Anonymous 







2019-09-18 08:56  
реліз готовий до завантаження
І-р 
Свій


З нами з: 21.07.16
Востаннє: 15.11.19
Повідомлень: 65

2019-09-20 19:48  
То про що фільм?
Anonymous 







2019-09-20 19:52  
І-р написано:
То про що фільм?

змінив опис, тепер має бути зрозуміліше Happy

Додано через 1 хвилину 48 секунд:

+ підправив посилання на трейлер

Ваш часовий пояс: GMT + 2 Години

Нова тема   Відповісти