Анна / Anna (2019) Remux 1080p Ukr/Eng | Sub Eng

Нові коментарі

Нова тема   Відповісти
Автор Повідомлення
Anonymous 







2019-09-17 07:59  
Анна / Anna (2019) Remux 1080p Ukr/Eng | Sub Eng




Альтернативний постер



«Ніколи не роби зброю мішенню»



Жанр: бойовик, трилер
Країна: Франція, США



Кінокомпанія: EuropaCorp, TF1 Films Production, OCS
Режисер: Люк Бессон
Актори: Саша Лусс, Хелен Міррен, Люк Еванс, Кілліан Мерфі, Лєра Абова, Алєксандр Пєтров, Нікіта Павлєнка, Ерік Годон

Сюжет:
Анна Полятова – це неймовірна жінка. Вона зуміла поєднати в собі двох абсолютно різних людей. Для всіх навколо Анна – це молода красива російська модель, яка всіх навколо може з легкістю зачарувати. Але насправді за зовнішністю цієї дівчини ховається небезпечний вбивця. Вона може позбавити життя будь-якого, хто зустрінеться їй на шляху, якщо для цього буде необхідність. Анна бере будь-які навіть найскладніші замовлення, адже ніхто не підозрює, що ця тендітна дівчина може вбивати. Вона найнебезпечніша вбивця в усьому світі..


Тривалість: 01:58:59
Якість: Remux 1080p

Відео:
кодек:
розмір кадру: 1920x1080
бітрейт: 33 Mб/с

Аудіо # 1:
мова: українська
переклад: професійний дубльований | студія Pie Post Production
кодек: 2.0
бітрейт: 192 кб/с
Інформація про дубляж
Перекладач: Ольга Галайда
Режисер дубляжу: Лідія Громовенко
Звукорежисер: Денис Подляський
Ролі дублювали: Катерина Брайковська, Андрій Твердак, Ніна Касторф, Андрій Альохін, Борис Георгієвський, Андрій Мостренко, Ольга Греськова та інші.

Фільм дубльовано студією Pie Post Production на замовлення компанії "Ukrainian Film Distribution".
Аудіо # 2:
мова: англійська
переклад: оригінал
кодек: 5.1
бітрейт: 640 кб/с

Аудіо # 3:
мова: англійська
переклад: оригінал
кодек: TrueHD + Atmos 7.1
бітрейт: 3616 кб/с

Субтитри:
мова: англійська
тип: програмні (м'які)
формат: *.srt
Info
Код:
General
Complete name                            : Anna (2019) Remux 1080p [Ukr_Eng] [Video_Hurtom].
Format                                   :
Format version                           : Version 4
File size                                : 31.1 GiB
Duration                                 : 1 h 58 min
Overall bit rate mode                    : Variable
Overall bit rate                         : 37.5 Mb/s
Movie name                               : Anna (2019) Remux 1080p [Ukr_Eng] [Video_Hurtom]
Encoded date                             : UTC 2019-09-18 10:50:32
Writing application                      : v30.1.0 ('Forever And More') 64-bit
Writing library                          : libebml v1.3.6 + v1.4.9
Cover                                    : Yes
Attachments                              : cover.jpg

Video
ID                                       : 1
Format                                   : AVC
Format/Info                              : Advanced Video Codec
Format profile                           : High[email protected]
Format settings                          : CABAC / 4 Ref Frames
Format settings, CABAC                   : Yes
Format settings, RefFrames               : 4 frames
Codec ID                                 : V_MPEG4/ISO/AVC
Duration                                 : 1 h 58 min
Bit rate mode                            : Variable
Bit rate                                 : 33.0 Mb/s
Maximum bit rate                         : 35.0 Mb/s
Width                                    : 1 920 pixels
Height                                   : 1 080 pixels
Display aspect ratio                     : 16:9
Frame rate mode                          : Constant
Frame rate                               : 23.976 (24000/1001) FPS
Color space                              : YUV
Chroma subsampling                       : 4:2:0
Bit depth                                : 8 bits
Scan type                                : Progressive
Bits/(Pixel*Frame)                       : 0.663
Stream size                              : 27.4 GiB (88%)
Language                                 : English
Default                                  : Yes
Forced                                   : No

Audio #1
ID                                       : 2
Format                                   : AC-3
Format/Info                              : Audio Coding 3
Commercial name                          : Dolby Digital
Codec ID                                 : A_AC3
Duration                                 : 1 h 58 min
Bit rate mode                            : Constant
Bit rate                                 : 192 kb/s
Channel(s)                               : 2 channels
Channel layout                           : L R
Sampling rate                            : 48.0 kHz
Frame rate                               : 31.250 FPS (1536 SPF)
Bit depth                                : 16 bits
Compression mode                         : Lossy
Stream size                              : 163 MiB (1%)
Title                                    : , 2 ch, 192 Кбт/с
Language                                 : Ukrainian
Service kind                             : Complete Main
Default                                  : Yes
Forced                                   : No

Audio #2
ID                                       : 3
Format                                   : AC-3
Format/Info                              : Audio Coding 3
Commercial name                          : Dolby Digital
Codec ID                                 : A_AC3
Duration                                 : 1 h 58 min
Bit rate mode                            : Constant
Bit rate                                 : 640 kb/s
Channel(s)                               : 6 channels
Channel layout                           : L R C LFE Ls Rs
Sampling rate                            : 48.0 kHz
Frame rate                               : 31.250 FPS (1536 SPF)
Bit depth                                : 16 bits
Compression mode                         : Lossy
Stream size                              : 545 MiB (2%)
Title                                    : АС3, 6 ch, 640 Кбт/с
Language                                 : English
Service kind                             : Complete Main
Default                                  : No
Forced                                   : No

Audio #3
ID                                       : 4
Format                                   : MLP FBA 16-ch
Format/Info                              : Meridian Lossless Packing FBA with 16-channel presentation
Commercial name                          : Dolby TrueHD with Dolby Atmos
Codec ID                                 : A_TRUEHD
Duration                                 : 1 h 58 min
Bit rate mode                            : Variable
Bit rate                                 : 3 616 kb/s
Maximum bit rate                         : 6 318 kb/s
Channel(s)                               : 8 channels
Channel layout                           : L R C LFE Ls Rs Lb Rb
Sampling rate                            : 48.0 kHz
Frame rate                               : 1 200.000 FPS (40 SPF)
Compression mode                         : Lossless
Stream size                              : 3.01 GiB (10%)
Title                                    : TrueHD, 8 ch, 3616 Кбт/с
Language                                 : English
Default                                  : No
Forced                                   : No
Number of dynamic objects                : 15
Bed channel count                        : 1 channel
Bed channel configuration                : LFE

Text
ID                                       : 5
Format                                   : UTF-8
Codec ID                                 : S_TEXT/UTF8
Codec ID/Info                            : UTF-8 Plain Text
Duration                                 : 1 h 52 min
Bit rate                                 : 47 b/s
Count of elements                        : 1308
Stream size                              : 39.3 KiB (0%)
Title                                    : Full
Language                                 : English
Default                                  : No
Forced                                   : No

Menu
00:00:00.000                             : en:00:00:00.000
00:06:14.291                             : en:00:06:14.291
00:16:42.209                             : en:00:16:42.209
00:21:09.185                             : en:00:21:09.185
00:31:16.708                             : en:00:31:16.708
00:35:25.832                             : en:00:35:25.832
00:45:57.338                             : en:00:45:57.338
00:53:43.262                             : en:00:53:43.262
01:00:52.732                             : en:01:00:52.732
01:08:39.907                             : en:01:08:39.907
01:14:24.084                             : en:01:14:24.084
01:24:15.133                             : en:01:24:15.133
01:28:36.519                             : en:01:28:36.519
01:36:36.582                             : en:01:36:36.582
01:46:36.390                             : en:01:46:36.390
01:51:04.783                             : en:01:51:04.783
Скріншоти





Джерело:
Особиста оцінка: 7 - моїй подрузі не сподобалося


Золотий реліз (завантажене не впливає на рейтинг)
 Трекер:    Зареєстрований   

Завантажити / скачати фільм українською



відео для новачків



 Зареєстрований:   2019-09-18 16:46
 Розмір:   31.14 GB 
 Оцінка фільму:   8.1/10 (Голосів: 12)
   
Інші релізи
   Анна / Anna (2019) antik_2008  22 / 0   1.3 GB   2019-09-23 13:11 
   Анна / Anna (2019) 1080p H.265 Ukr/Eng | Sub Eng -Star-Lord-  7 / 0   5.9 GB   2019-09-22 10:38 
   Анна / Anna (2019) 720p Ukr/Eng | Sub Eng 11FrYkT  16 / 4   4.9 GB   2019-09-18 17:13 
   Анна / Anna (2019) UHD Remux 4K 2160p HDR H.265 Ukr/Eng | Sub Eng antik_2008  5 / 0   58.88 GB   2019-09-18 16:46 
   Анна / Anna (2019) Ukr/Eng antik_2008  10 / 0   2.01 GB   2019-09-18 16:44 
   Анна / Anna (2019) 1080p Ukr/Eng | Sub Eng antik_2008  23 / 0   10.66 GB   2019-09-18 16:40 
   Анна / Anna (2019) AVC Ukr/Eng | Sub Eng 11FrYkT  14 / 0   2.05 GB   2019-09-18 09:11 
bot 
робот


З нами з: 30.09.07
Востаннє: 26.05.05
Повідомлень: 23309

2019-09-18 16:46  
Тему перенесено з Анонси релізів до форуму Фільми в HD


antik_2008

asmforce 
Новенький


З нами з: 30.05.14
Востаннє: 18.02.20
Повідомлень: 11

2019-09-29 19:04  
Ну таке…
Поставлено загалом непогано, один раз переглянути можна.

Виглядає на те, що в неофіційних колах Європи та Америки, як бачимо, не згасає мода на оцю росіянську тематику.
Маємо кіно про чергову російську шльондру, про КҐБ, яке в добу американського нео- псевдо- реалізму змальовано так, ніби це не стовпище дикунів (як воно було насправді), а така собі притомна ЦРУ в російянському антуражі.

Ваш часовий пояс: GMT + 2 Години

Нова тема   Відповісти