Морський бій / Battleship (2012) UHD Remux 4K 2160p HDR 10 H.265 Ukr/Eng | Sub Ukr/Eng {Hurtom]

Нові коментарі

Нова тема   Відповісти
Автор Повідомлення
seasky 
Новенький


З нами з: 28.02.19
Востаннє: 19.10.19
Повідомлень: 16

2019-09-17 02:58  
Морський бій / Battleship (2012) UHD Remux 4K 2160p HDR H.265 2xUkr/Eng | Sub Ukr/Eng

Українські постери:



Альтернативні постери:




[
Жанр: екшн, пригодницький, фантастика
Країна: США



Кінокомпанія: Universal Pictures, Hasbro, Bluegrass Films
Режисер: Пітер Берг (Peter Berg)
Актори: Тейлор Кітч (Taylor Kitsch), Ліам Нісон (Liam Neeson), Александер Скарсгард (Alexander Skarsgård), Ріанна (Rihanna), Бруклін Декер (Brooklyn Decker), Таданобу Асано (Tadanobu Asano), Джон Туї (John Tui), Грегорі Д. Гедсон (Gregory D. Gadson), Джессі Племонс (Jesse Plemons), Хаміш Лінклейтер (Hamish Linklater) та інші.

Сюжет:
Фільм про битву інтернаціонального флоту землян з армадою інопланетних кораблів, що зробили вимушену посадку в океані, що переслідують загарбницькі цілі.


Тривалість: 02:11:14
Якість: UltraHD Remux 4K 2160p
Відео:
кодек: H.265 (HEVC)
розмір кадру: 3840 х 2160
бітрейт: 50,5 Mб/с
бітова глибина: 10 біт
кольоровий простір: BT.2020 (HDR)
Увага! Перед завантаженням переконайтесь, що ваш пристрій відтворення (та/або ПЗ) підтримує H.265 (HEVC)


Аудіо # 1:
мова: українська
переклад: професійний дубльований | Le Doyen | Line
кодек: 5.1
бітрейт: 448 кб/с


Аудіо # 2:
мова: українська
переклад: професійний дубльований | Le Doyen | Line
кодек: 2.0
бітрейт: 384 кб/с


Аудіо # 3:
мова: українська
переклад: багатоголосий закадровий
кодек: 2.0
бітрейт: 192 кб/с

Аудіо # 4:
мова: англійська
переклад: оригінал
кодек: -HD MA 7.1
бітрейт: 6704 кб/с

Аудіо # 5:
мова: англійська
переклад: оригінал
кодек: -HD MA 5.1
бітрейт: 4172кб/с

Аудіо # 6:
мова: англійська
переклад: оригінал
кодек: 5.1
бітрейт: 640 кб/с

Субтитри:
мова: українська, (Forsed)
тип: програмні (м'які)
формат: *.srt

Субтитри:
мова: українська, (Full)
тип: програмні (м'які)
формат: *.srt

Субтитри:
мова: англійська, (Full)
тип: програмні (м'які)
формат: *.srt

Субтитри:
мова: англійська, (SHD)
тип: програмні (м'які)
формат: *.srt

Субтитри:
мова: англійська, (SDH Colored)
тип: програмні (м'які)
формат: *.srt
Info
General
Unique ID : 7665969899495084905114105912723142746 (0x5C4697F44DD6A94BB2840342EA6785A)
Complete name : Z:\Battleship (2012) UHD Remux 4K 2160p HDR 10 H.265 Ukr Eng {Hurtom].
Format :
Format version : Version 4
File size : 57.8 GiB
Duration : 2 h 11 min
Overall bit rate mode : Variable
Overall bit rate : 63.0 Mb/s
Movie name : Морський бій / Battleship (2012) UHD Remux 4K 2160p HDR 10 H.265 Ukr/Eng | Sub Ukr/Eng {Hurtom]
Encoded date : UTC 2019-09-16 16:55:51
Writing application : v37.0.0 ('Leave It') 64-bit
Writing library : libebml v1.3.9 + v1.5.2
Cover : Yes
Attachments : cover.jpg

Video
ID : 1
Format : HEVC
Format/Info : High Efficiency Video Coding
Format profile : Main [email protected]@High
HDR format : SMPTE ST 2086, HDR10 compatible
Codec ID : V_MPEGH/ISO/HEVC
Duration : 2 h 11 min
Bit rate : 50.5 Mb/s
Width : 3 840 pixels
Height : 2 160 pixels
Display aspect ratio : 16:9
Frame rate mode : Constant
Frame rate : 23.976 (24000/1001) FPS
Color space : YUV
Chroma subsampling : 4:2:0 (Type 2)
Bit depth : 10 bits
Bits/(Pixel*Frame) : 0.254
Stream size : 46.3 GiB (80%)
Title : Battleship (2012) UHD Remux 4K 2160p HDR 10 H.265 Ukr/Eng | Sub Ukr/Eng {Hurtom]
Writing library : ATEME Titan KFE 3.7.3 (4.7.3.1003)
Default : Yes
Forced : No
Color range : Limited
Color primaries : BT.2020
Transfer characteristics : PQ
Matrix coefficients : BT.2020 non-constant
Mastering display color pri : Display P3
Mastering display luminance : min: 0.0050 cd/m2, max: 1000 cd/m2
Maximum Content Light Level : 972 cd/m2
Maximum Frame-Average Light : 338 cd/m2

Audio #1
ID : 2
Format : AC-3
Format/Info : Audio Coding 3
Commercial name : Dolby Digital
Codec ID : A_AC3
Duration : 2 h 11 min
Bit rate mode : Constant
Bit rate : 448 kb/s
Channel(s) : 6 channels
Channel layout : L R C LFE Ls Rs
Sampling rate : 48.0 kHz
Frame rate : 31.250 FPS (1536 SPF)
Bit depth : 16 bits
Compression mode : Lossy
Stream size : 421 MiB (1%)
Title : DUB (Le Doyen) 5.1 | by Zeus62
Language : Ukrainian
Service kind : Complete Main
Default : Yes
Forced : No

Audio #2
ID : 3
Format : AC-3
Format/Info : Audio Coding 3
Commercial name : Dolby Digital
Codec ID : A_AC3
Duration : 2 h 11 min
Bit rate mode : Constant
Bit rate : 384 kb/s
Channel(s) : 2 channels
Channel layout : L R
Sampling rate : 48.0 kHz
Frame rate : 31.250 FPS (1536 SPF)
Bit depth : 16 bits
Compression mode : Lossy
Stream size : 360 MiB (1%)
Title : DUB (Le Doyen) 2.0
Language : Ukrainian
Service kind : Complete Main
Default : No
Forced : No

Audio #3
ID : 4
Format : AC-3
Format/Info : Audio Coding 3
Commercial name : Dolby Digital
Codec ID : A_AC3
Duration : 2 h 11 min
Bit rate mode : Constant
Bit rate : 192 kb/s
Channel(s) : 2 channels
Channel layout : L R
Sampling rate : 48.0 kHz
Frame rate : 31.250 FPS (1536 SPF)
Bit depth : 16 bits
Compression mode : Lossy
Stream size : 180 MiB (0%)
Title : MVO (Україна) 2.0
Language : Ukrainian
Service kind : Complete Main
Default : No
Forced : No

Audio #4
ID : 5
Format : XLL X
Format/Info : Digital Theater Systems
Commercial name : -HD Master Audio
Codec ID : A_DTS
Duration : 2 h 11 min
Bit rate mode : Variable
Bit rate : 6 704 kb/s
Channel(s) : 8 channels
Channel(s)_Original : Object Based
ChannelLayout_Original : Object Based
Sampling rate : 48.0 kHz
Frame rate : 93.750 FPS (512 SPF)
Bit depth : 24 bits
Stream size : 6.15 GiB (11%)
Title : Original 8 ch
Language : English
Default : No
Forced : No

Audio #5
ID : 6
Format : XLL
Format/Info : Digital Theater Systems
Commercial name : -HD Master Audio
Codec ID : A_DTS
Duration : 2 h 11 min
Bit rate mode : Variable
Bit rate : 4 172 kb/s
Channel(s) : 6 channels
Channel layout : C L R Ls Rs LFE
Sampling rate : 48.0 kHz
Frame rate : 93.750 FPS (512 SPF)
Bit depth : 24 bits
Compression mode : Lossless
Stream size : 3.83 GiB (7%)
Title : English 6 ch
Language : English
Default : No
Forced : No

Audio #6
ID : 7
Format : AC-3
Format/Info : Audio Coding 3
Commercial name : Dolby Digital
Codec ID : A_AC3
Duration : 2 h 11 min
Bit rate mode : Constant
Bit rate : 640 kb/s
Channel(s) : 6 channels
Channel layout : L R C LFE Ls Rs
Sampling rate : 48.0 kHz
Frame rate : 31.250 FPS (1536 SPF)
Bit depth : 16 bits
Compression mode : Lossy
Stream size : 601 MiB (1%)
Title : English 6 ch
Language : English
Service kind : Complete Main
Default : No
Forced : No

Text #1
ID : 8
Format : UTF-8
Codec ID : S_TEXT/UTF8
Codec ID/Info : UTF-8 Plain Text
Duration : 2 h 8 min
Bit rate : 1 b/s
Count of elements : 33
Stream size : 1.71 KiB (0%)
Title : Forced
Language : Ukrainian
Default : No
Forced : Yes

Text #2
ID : 9
Format : UTF-8
Codec ID : S_TEXT/UTF8
Codec ID/Info : UTF-8 Plain Text
Duration : 2 h 9 min
Bit rate : 74 b/s
Count of elements : 1368
Stream size : 70.7 KiB (0%)
Title : Full
Language : Ukrainian
Default : No
Forced : No

Text #3
ID : 10
Format : UTF-8
Codec ID : S_TEXT/UTF8
Codec ID/Info : UTF-8 Plain Text
Duration : 2 h 9 min
Bit rate : 47 b/s
Count of elements : 1386
Stream size : 44.7 KiB (0%)
Title : Full
Language : English
Default : No
Forced : No

Text #4
ID : 11
Format : UTF-8
Codec ID : S_TEXT/UTF8
Codec ID/Info : UTF-8 Plain Text
Duration : 2 h 9 min
Bit rate : 50 b/s
Count of elements : 1489
Stream size : 47.7 KiB (0%)
Title : SDH
Language : English
Default : No
Forced : No

Text #5
ID : 12
Format : UTF-8
Codec ID : S_TEXT/UTF8
Codec ID/Info : UTF-8 Plain Text
Duration : 2 h 9 min
Bit rate : 58 b/s
Count of elements : 1489
Stream size : 55.7 KiB (0%)
Title : SDH-Colored
Language : English
Default : No
Forced : No

Menu
00:00:00.000 : en:Chapter 1
00:09:24.105 : en:Chapter 2
00:15:04.320 : en:Chapter 3
00:23:08.678 : en:Chapter 4
00:29:44.032 : en:Chapter 5
00:36:26.809 : en:Chapter 6
00:42:01.268 : en:Chapter 7
00:49:09.655 : en:Chapter 8
00:56:08.323 : en:Chapter 9
01:00:02.223 : en:Chapter 10
01:09:50.519 : en:Chapter 11
01:15:26.730 : en:Chapter 12
01:20:56.935 : en:Chapter 13
01:29:47.423 : en:Chapter 14
01:37:14.411 : en:Chapter 15
01:43:32.247 : en:Chapter 16
01:49:38.572 : en:Chapter 17
01:56:20.682 : en:Chapter 18
02:00:41.359 : en:Chapter 19
02:09:33.974 : en:Chapter 20
Скріншоти













[
Джерело: &
Особиста оцінка: 10 - без зайвих вагань рекомендую всім![/img]


Золотий реліз (завантажене не впливає на рейтинг)
 Трекер:    Зареєстрований   

Завантажити / скачати фільм українською



відео для новачків



 Зареєстрований:   2019-09-17 02:58
 Розмір:   57.8 GB 
 Оцінка фільму:   8.8/10 (Голосів: 5)
   
Інші релізи
   Морський бій / Battleship (2012) Remux 1080p 2xUkr/Eng | Sub Ukr/Eng MakRA  3 / 0   23.83 GB   2019-06-27 23:15 
   Морський бій / Battleship (2012) AVC 2xUkr/Eng | Sub Ukr/Eng staf777  10 / 0   3.88 GB   2018-12-14 13:51 
   Останній бій (American Warships) / The American Battleship (2012) Ukr/Eng drop_plz  3 / 0   1.37 GB   2018-04-30 08:20 
   Морський бій / Battleship (2012) 1080p 2xUkr/Eng | Sub Ukr/Eng staf777  7 / 0   13.81 GB   2018-02-11 12:36 
   Морський бій / Battleship (2012) 2xUkr/Eng | Sub Ukr/Eng Gelios  7 / 0   2.18 GB   2016-02-25 21:22 
   Морський бій / Battleship (2012) 720p-mini (60fps) Drool  2 / 0   6.43 GB   2015-05-06 09:12 
   Морський бій / Battleship (2012) Ukr/Eng antik_2008  2 / 0   2.54 GB   2012-11-22 16:53 
   Морський бій / Battleship (2012) Skiff  6 / 0   2.12 GB   2012-11-22 16:52 
   Морський бій / Battleship (2012) 720p Ukr/Eng | Sub Ukr/Eng | Line Zeus62  7 / 0   4.2 GB   2012-09-14 13:02 
   Морський бій / Battleship (2012) 720p Ukr/Eng | Sub Ukr/Eng 11FrYkT  1 / 0   5.98 GB   2012-09-11 21:38 
   Морський бій (Лінкор) / Battleship (2012) Ukr / Eng | sub Ukr / Eng patriot2305  2 / 0   1.63 GB   2012-08-17 18:37 
igor911 
Модератор відео


З нами з: 18.01.08
Востаннє: 19.10.19
Повідомлень: 13542

2019-09-17 09:12  
seasky написано:
Морський бій / Battleship (2012) UHD Remux 4K 2160p HDR 10 H.265 Ukr/Eng | Sub Ukr/Eng

треба замінити на "Морський бій / Battleship (2012) UHD Remux 4K 2160p HDR H.265 2xUkr/Eng | Sub Ukr/Eng"
seasky написано:
кодек: -HD

виправити на "-HD MA"

також треба вказати де які субтитри

Ваш часовий пояс: GMT + 2 Години

Нова тема   Відповісти