Вампір / Vampyr / Vampyr - Der Traum des Allan Grey (1932) Remux 1080p Ukr/Ger | Sub Eng

Нові коментарі

Нова тема   Відповісти
Автор Повідомлення
MakRA 
VIP


З нами з: 11.11.18
Востаннє: 24.09.20
Повідомлень: 1120

2019-09-17 02:04  
Вампір / Vampyr / Vampyr - Der Traum des Allan Grey (1932) Remux 1080p Ukr/Ger | Sub Eng


Альтернативні постери:


Жанр: містика, артхаус, жахи
Країна: Німеччина , Франція



Кінокомпанія: Tobis Filmkunst
Режисер: Карл Теодор Дрейєр[Carl Theodor Dreyer]
Актори: Джуліан Вест [Julian West], Моріс Шуц [Maurice Schutz], Сибілле Шміц [Sybille Schmitz], Ян Єронімко [Jan Hieronimko], Генрієтта Жерард [Henriette Gérard]

Сюжет:
Подорожі - це завжди нові емоції та враження. Щоправда, місця варто вибирати ретельно, оскільки варто затриматися на незнайомій території, як можна дуже швидко стати жертвою незрозумілого...
Любителю відкривати невідомі сторінки історії пощастило опинитися в старому замку.
Але замість історичних цінностей перед ним поступово почали з'являтися страшні речі: так він встиг познайомитися з тінню людини, яка існує окремо від свого господаря. Ще помітив підозрілу особу з косою, а також став свідком своєї ж смерті! І це було тільки початком майбутнього жахіття...


Тривалість: 01:13:40
Якість: Remux 1080p [Criterion Collection]
Відео:
кодек:
розмір кадру: 1920 х 1080
бітрейт: 35,4 Mб/с

Аудіо # 1:
мова: українська
переклад: одноголосий закадровий | Студія "Антигламур"
кодек: 2.0
бітрейт: 192 кб/с

Аудіо # 2:
мова: німецька
переклад: оригінал
кодек: 1.0
бітрейт: 568 кб/с

Субтитри: (Full)
мова: англійська
тип: програмні (м'які)
формат: *.srt

Збережено оригінальні розділи, як на Blu-ray.
Info
General
Unique ID : 12701759190153586868673557060964239702 (0x98E45140AD44AEF27F2FC865D0AC956)
Complete name : M:\+ Фільми в HD\Vampyr - Der Traum des Allan Grey (1932) Remux 1080p UkrGer Sub Eng [Hurtom].
Format :
Format version : Version 4
File size : 18.7 GiB
Duration : 1 h 13 min
Overall bit rate mode : Variable
Overall bit rate : 36.4 Mb/s
Movie name : Вампір / Vampyr / Vampyr - Der Traum des Allan Grey (1932) Remux 1080p Ukr/Ger | Sub Eng [Hurtom]
Encoded date : UTC 2019-09-16 22:00:01
Writing application : v25.0.0 ('Prog Noir') 64-bit
Writing library : libebml v1.3.6 + v1.4.9
Cover : Yes
Attachments : cover.jpg.jpg

Video
ID : 1
Format : AVC
Format/Info : Advanced Video Codec
Format profile : [email protected]
Format settings : CABAC / 4 Ref Frames
Format settings, CABAC : Yes
Format settings, Reference fra : 4 frames
Codec ID : V_MPEG4/ISO/AVC
Duration : 1 h 13 min
Bit rate mode : Variable
Bit rate : 35.4 Mb/s
Maximum bit rate : 37.0 Mb/s
Width : 1 920 pixels
Height : 1 080 pixels
Display aspect ratio : 16:9
Frame rate mode : Constant
Frame rate : 23.976 (24000/1001) FPS
Color space : YUV
Chroma subsampling : 4:2:0
Bit depth : 8 bits
Scan type : Progressive
Bits/(Pixel*Frame) : 0.713
Stream size : 18.2 GiB (97%)
Title : Vampyr - Der Traum des Allan Grey (1932) Remux 1080p Ukr/Ger | Sub Eng [Hurtom]
Language : Ukrainian
Default : Yes
Forced : Yes

Audio #1
ID : 2
Format : AC-3
Format/Info : Audio Coding 3
Commercial name : Dolby Digital
Codec ID : A_AC3
Duration : 1 h 13 min
Bit rate mode : Constant
Bit rate : 192 kb/s
Channel(s) : 2 channels
Channel layout : L R
Sampling rate : 48.0 kHz
Frame rate : 31.250 FPS (1536 SPF)
Bit depth : 16 bits
Compression mode : Lossy
Stream size : 101 MiB (1%)
Title : VO [Студія "Антигламур"] 2.0
Language : Ukrainian
Service kind : Complete Main
Default : Yes
Forced : Yes

Audio #2
ID : 3
Format :
Format/Info : Free Lossless Audio Codec
Codec ID : A_FLAC
Duration : 1 h 13 min
Bit rate mode : Variable
Bit rate : 568 kb/s
Channel(s) : 1 channel
Channel layout : C
Sampling rate : 48.0 kHz
Frame rate : 11.719 FPS (4096 SPF)
Bit depth : 24 bits
Compression mode : Lossless
Stream size : 299 MiB (2%)
Title : Original 1.0
Writing library : libFLAC 1.2.1 (UTC 2007-09-17)
Language : German
Default : No
Forced : No

Text
ID : 5
Format : UTF-8
Codec ID : S_TEXT/UTF8
Codec ID/Info : UTF-8 Plain Text
Duration : 1 h 11 min
Bit rate : 12 b/s
Count of elements : 212
Stream size : 6.49 KiB (0%)
Title : Eng (Full)
Language : English
Default : No
Forced : No

Menu
00:00:00.000 : en:00:00:00.000
00:02:28.148 : en:00:02:28.148
00:10:46.062 : en:00:10:46.062
00:16:48.799 : en:00:16:48.799
00:20:22.471 : en:00:20:22.471
00:28:25.120 : en:00:28:25.120
00:32:05.257 : en:00:32:05.257
00:39:29.158 : en:00:39:29.158
00:43:01.204 : en:00:43:01.204
00:49:53.949 : en:00:49:53.949
00:51:37.553 : en:00:51:37.553
00:54:49.870 : en:00:54:49.870
00:58:09.528 : en:00:58:09.528
01:03:02.654 : en:01:03:02.654
01:06:45.210 : en:01:06:45.210
01:08:41.951 : en:01:08:41.951
Скріншоти
Джерело: &
Дякую за звук п. Максим Омельченко
Особиста оцінка: 10 - без зайвих вагань рекомендую всім!


Золотий реліз (завантажене не впливає на рейтинг)
 Трекер:    Зареєстрований   

Завантажити / скачати фільм українською



відео для новачків



 Зареєстрований:   2019-09-17 02:04
 Розмір:   18.72 GB 
 Оцінка фільму:   8.7/10 (Голосів: 7)
   
Інші релізи
hetzendorf 
Забанено
Забанено


З нами з: 23.07.15
Востаннє: 18.09.20
Повідомлень: 2876

2019-10-15 23:54  
Надзвичайно нудне безглузде кіно, геть незрозуміло, що відбувається, жодних логічних та причинно-наслідкових зв'язків не простежується.
1/10

Ваш часовий пояс: GMT + 2 Години

Нова тема   Відповісти