Anna Fedorova (Анна Федорова) | Дискографія (4CD) (2014-2019) [] | Classical / Piano

Нові коментарі

Нова тема   Відповісти
Автор Повідомлення
kolpavel 
VIP


З нами з: 04.05.14
Востаннє: 03.03.21
Повідомлень: 1375

2019-09-16 23:28  
Anna Fedorova (Анна Федорова) | Дискографія (4CD) (2014-2019) [] | Classical / Piano

Anna Fedorova (Анна Федорова) | Дискографія (4CD) (2014-2019) [] | Classical / Piano


Стиль: Classical / Piano
Країна, місто: Україна, Київ
Сайти: Офіційний сайт
Видавець: DiscAuverS, Channel Classics Records, Piano Classics.

Виконавці:
Anna Fedorova - piano

Альбоми:
2014 - Rachmaninoff: Piano Concerto 2, Cello Sonata

Anna Fedorova (Анна Федорова) | Дискографія (4CD) (2014-2019) [] | Classical / Piano


Виконавці:

Anna Fedorova - piano || Benedict Kloeckner - cello || Nordwestdeutsche Philharmonie || Laercio Diniz - conductor.

Треклист:

01-03. Piano Concerto No. 2 in C minor Op. 18
04-07. Cello Sonata in G minor Op. 19

1. Sergei Rachmaninoff: Piano Concerto No. 2 in C Minor, Op. 18: I. Moderato - 11:27
2. Sergei Rachmaninoff: Piano Concerto No. 2 in C Minor, Op. 18: II. Adagio sostenuto - 12:08
3. Sergei Rachmaninoff: Piano Concerto No. 2 in C Minor, Op. 18: III. Allegro scherzando - 12:28
4. Sergei Rachmaninoff: Cello Sonata in G Minor, Op. 19: I. Lento-allegro moderato - 13:16
5. Sergei Rachmaninoff: Cello Sonata in G Minor, Op. 19: II. Allegro scherzando - 06:30
6. Sergei Rachmaninoff: Cello Sonata in G Minor, Op. 19: III. Andante - 06:16
7. Sergei Rachmaninoff: Cello Sonata in G Minor, Op. 19: IV. Allegro mosso - 11:12

Тривалість: 01:13:17
Мова: інструментальні композиції
Аудіо-кодек:
Бітрейт: 455-540 кб/с
Джерело: трекер

Додаткова інформація:
лог якостi
fooCDtect - foobar2000 + auCDtect, baralgin.

auCDtect: CD records authenticity detector, version 0.8.2
Copyright (c) 2004 Oleg Berngardt. All rights reserved.
Copyright (c) 2004 Alexander Djourik. All rights reserved.

mode: 0

===========================================
Track: 04. Cello Sonata in G minor, Op. 19- I. Lento Allegro Moderato
Quality: CDDA 100%
===========================================
Track: 02. Piano Concerto No. 2 in C Minor, Op. 18- II. Adagio Sostenuto
Quality: CDDA 100%
===========================================
Track: 01. Piano Concerto No. 2 in C Minor, Op. 18- I. Moderato
Quality: CDDA 99%
===========================================
Track: 05. Cello Sonata in G minor, Op. 19- II. Allegro Scherzando
Quality: CDDA 100%
===========================================
Track: 06. Cello Sonata in G minor, Op. 19- III. Andante
Quality: CDDA 100%
===========================================
Track: 07. Cello Sonata in G minor, Op. 19- IV. Allegro Mosso
Quality: CDDA 100%
===========================================
Track: 03. Piano Concerto No. 2 in C Minor, Op. 18- III. Allegro Scherzando
Quality: CDDA 99%
===========================================[/pre]
2017 - Piano - Chopin, Liszt, Brahms

Anna Fedorova (Анна Федорова) | Дискографія (4CD) (2014-2019) [] | Classical / Piano


Треклист:

Frédéric Chopin (1810-1849): Sonate No. 3 in B Minor, Op. 58:
01. I. Allegro maestoso- 13:44
02 .II. Scherzo. Molto vivace - 02:57
03. III. largo - 09:11
4. IV. Finale - 05:29
Franz Liszt (1811-1886): Années de pèlerinage II, S. 161:
05. No. 7, Sonetto 104 del Petrarca - 06:21
Johannes Brahms (1833-1897): 6 Klavierstücke, Op. 118:
06. No. 1, Intermezzo. Allegro non assai ma molto appassionato - 06:31
07. No. 2, Intermezzo. Andante tenreramente - 03:27
08. No. 3, Ballade. Allegro energico - 02:43
09. No. 4, Intermezzo. Allegretto un poco agitato - 04:11
10. No. 5, Romance. Andante allegretto grazioso - 05:02
11. No. 6, Intermezzo. Andante largo e mesto - 01:53

Тривалість: 01:01:29
Мова: інструментальні композиції
Аудіо-кодек:
Бітрейт: 2077 кб/с
Джерело: трекер

Додаткова інформація:
лог якостi
foobar2000 1.4.3 / Dynamic Range Meter 1.1.1
log date: 2019-09-16 17:20:10

--------------------------------------------------------------------------------
Analyzed: Anna Fedorova / Piano - Chopin, Liszt, Brahms
--------------------------------------------------------------------------------

DR Peak RMS Duration Track
--------------------------------------------------------------------------------
DR13 -2.79 dB -21.19 dB 13:45 01-Sonate No. 3 in B Minor, Op. 58: I. Allegro maestoso
DR14 -5.46 dB -24.85 dB 2:57 02-Sonate No. 3 in B Minor, Op. 58: II. Scherzo. Molto vivace
DR18 -4.96 dB -29.30 dB 9:11 03-Sonate No. 3 in B Minor, Op. 58: III. largo
DR13 -0.40 dB -17.70 dB 5:30 04-Sonate No. 3 in B Minor, Op. 58: IV. Finale
DR14 -2.23 dB -23.72 dB 6:21 05-Années de pèlerinage II, S. 161: No. 7, Sonetto 104 del Petrarca
DR14 -6.30 dB -27.80 dB 6:31 06-6 Klavierstücke, Op. 118: No. 1, Intermezzo. Allegro non assai ma molto appassionato
DR13 -2.54 dB -20.74 dB 3:27 07-6 Klavierstücke, Op. 118: No. 2, Intermezzo. Andante tenreramente
DR12 -3.56 dB -22.14 dB 2:44 08-6 Klavierstücke, Op. 118: No. 3, Ballade. Allegro energico
DR16 -5.49 dB -28.29 dB 4:12 09-6 Klavierstücke, Op. 118: No. 4, Intermezzo. Allegretto un poco agitato
DR14 -2.38 dB -23.44 dB 5:03 10-6 Klavierstücke, Op. 118: No. 5, Romance. Andante allegretto grazioso
DR12 -3.53 dB -18.77 dB 1:53 11-6 Klavierstücke, Op. 118: No. 6, Intermezzo. Andante largo e mesto
--------------------------------------------------------------------------------

Number of tracks: 11
Official DR value: DR14

Samplerate: 96000 Hz
Channels: 2
Bits per sample: 24
Bitrate: 2077 kbps
Codec:
================================================================================
2018 - Four Fantasies / Scriabin, Chopin, Schumann, Beethoven

Anna Fedorova (Анна Федорова) | Дискографія (4CD) (2014-2019) [] | Classical / Piano


Виконавці:
Anna Fedorova - piano

Треклист:

Sonata No. 2 in G-sharp Minor (Sonata-Fantasie) Op. 19 - 12:33
1. I Andante Alexander Scriabin- 08:11
2. II Presto Alexander Scriabin - 04:22
Fantasie in F Minor Op. 49 - 13:37
3. Fantasie in F Minor Op. 49 Frédéric Chopin - 13:37
Fantasie in C Major Op. 17 - 31:24
4. I Durchaus fantastisch und leidenschaftlich vorzutragen Robert Schumann - 12:57
5. II Mäßig-Durchaus energisch Robert Schumann - 07:52
6. III Langsam getragen-Durchweg leise zu halten Robert Schumann - 10:34
Sonata quasi una Fantasia No.14 in C-sharp Minor, Op. 27 No. 2 ‘Moonlight’ - 15:31
7. I Adagio sostenuto Ludwig Van Beethoven - 05:21
8. II Allegretto Ludwig Van Beethoven - 02:26
9. III Presto agitato Ludwig Van Beethoven - 07:42

Тривалість: 01:13:06
Мова: інструментальні композиції
Аудіо-кодек:
Бітрейт: 3010 кб/с
Джерело: трекер
Додаткова інформація:
лог якостi
foobar2000 1.4.3 / Dynamic Range Meter 1.1.1
log date: 2019-09-16 17:36:31

--------------------------------------------------------------------------------
Analyzed: Anna Fedorova / Four Fantasies
--------------------------------------------------------------------------------

DR Peak RMS Duration Track
--------------------------------------------------------------------------------
DR16 -2.09 dB -24.65 dB 8:14 01-Scriabin - Sonatano. 2 in G sharp minor - Andante
DR13 -0.03 dB -17.89 dB 4:22 02-Scriabin - Sonatano. 2 in G sharp minor - Presto
DR14 0.00 dB -19.98 dB 13:37 03-Chopin Fantasie in F minor op. 49
DR13 -2.10 dB -21.48 dB 12:57 04-Schumann - Fantasie in C Major op. 17 - Durchaus Fantastisch
DR13 0.00 dB -18.26 dB 7:53 05-Schumann - Fantasie in C Major op. 17 - Massig
DR17 -0.01 dB -24.30 dB 10:34 06-Schumann - Fantasie in C Major op. 17 - Lansam getragen
DR15 -11.20 dB -32.28 dB 5:22 07-Beethoven - Sonata quasi una Fantasia no. 14 (moonlight) - Adagio sostenuto
DR14 -8.01 dB -27.11 dB 2:27 08-Beethoven - Sonata quasi una Fantasia no. 14 (moonlight) Allegretto
DR14 -1.55 dB -20.91 dB 7:43 09-Beethoven - Sonata quasi una Fantasia no. 14 (moonlight) Presto agitato
--------------------------------------------------------------------------------

Number of tracks: 9
Official DR value: DR14

Samplerate: 192000 Hz
Channels: 2
Bits per sample: 24
Bitrate: 3010 kbps
Codec:
================================================================================
2019 - Storyteller / Chopin, Liszt, Scriabin

Anna Fedorova (Анна Федорова) | Дискографія (4CD) (2014-2019) [] | Classical / Piano


Виконавці:
Anna Fedorova - piano

Треклист:

Four Ballades - 37:04
Ballade No. 1 Op. 23 Chopin - 09:47
2. Ballade No. 2 Op. 38 Chopin - 07:38
3. Ballade No. 3 Op. 47 Chopin - 07:49
4. Ballade No. 4 Op. 52 Chopin - 11:49
Three Petrarch Sonnets 18:28
5. Petrarch Sonnet No. 47 Liszt - 05:49
6. Petrarch Sonnet No. 104 Liszt - 06:03
7. Petrarch Sonnet No. 123 Liszt - 06:35
Two Poems Op. 32 - 05:02
8. I. Andante cantabile Scriabin - 03:25
9. II. Allegro Scriabin - 01:36
Sonata No. 4 Op. 30 - 08:52
10. I. Andante Scriabin - 03:18
11. II. Prestissimo volando Scriabin - 05:33

Тривалість: 01:09:27
Мова: інструментальні композиції
Аудіо-кодек:
Бітрейт: 939 - 1085 кб/с
Джерело: трекер
Додаткова інформація:
лог якостi
foobar2000 1.5 / Dynamic Range Meter 1.1.1
log date: 2020-01-06 23:39:51

--------------------------------------------------------------------------------
Analyzed: Anna Fedorova / Storyteller
--------------------------------------------------------------------------------

DR Peak RMS Duration Track
--------------------------------------------------------------------------------
DR13 -6.75 dB -27.01 dB 9:48 01-Ballade No. 1 Op. 23
DR12 -7.35 dB -26.21 dB 7:38 02-Ballade No. 2 Op. 38
DR13 -7.99 dB -27.56 dB 7:49 03-Ballade No. 3 Op. 47
DR14 -7.54 dB -27.19 dB 11:50 04-Ballade No. 4 Op. 52
DR13 -10.58 dB -32.13 dB 5:49 05-Three Petrarch Sonnets - No. 47
DR14 -8.77 dB -29.16 dB 6:03 06-Three Petrarch Sonnets - No. 104
DR15 -10.08 dB -33.11 dB 6:36 07-Three Petrarch Sonnets - No. 123
DR14 -14.57 dB -35.46 dB 3:26 08-Two Poems Op. 32 - Andante cantabile
DR11 -7.81 dB -23.43 dB 1:36 09-Two Poems Op. 32 - Allegro
DR14 -20.08 dB -39.45 dB 3:19 10-Sonata No. 4 op. 30 - Andante
DR12 -6.38 dB -24.62 dB 5:34 11-Sonata No. 4 op. 30 - Prestissimo volando
--------------------------------------------------------------------------------

Number of tracks: 11
Official DR value: DR13

Samplerate: 2822400 Hz / PCM Samplerate: 44100 Hz
Channels: 2
Bits per sample: 1
Bitrate: 5645 kbps
Codec: DSD64
================================================================================
Тривалість: 05:54:48
Мова: інструментальні композиції
Аудіо-кодек:
Бітрейт: 455-3010 кб/с
Джерело: трекер
Додаткова інформація:
Біографія (анг.)

Anna Fedorova is one of the world's premier young pianists. From an early age, she demonstrated an innate musical maturity and outstanding technical abilities. Her international concert career took off while she was only a child and audiences around the world were “completely taken by surprise, compelled and astonished” by the depth and power of her musical expression.

At over 21 million views, Anna’s live recording of the Rachmaninoff 2nd Piano Concerto in the Royal Concertgebouw has become the most watched classical concerto on Youtube and is highly praised by many renown musicians. Being the face of the Sunday morning series in season ’17/18, she return there annually to perform with orchestras with live streaming on the dutch classical music channel, AvroTros.

Anna has performed in some of the most prestigious concert halls of Europe, North and South America, and Asia, including the Amsterdam Concertgebouw, Carnegie Hall, Royal Festival Hall, Theatre des Champs Elysees in Paris, the Zurich Tonhalle, the Palacio de Bellas Artes in Mexico, the Teatro Colon in Buenos Aires, London’s Cadogan Hall, the Vancouver Playhouse, Paris’ Louis Vuitton Series, the Warsaw Filharmonia, the Gdansk Philharmonic, the Tel Aviv Museum of Art, Tokyo’s Bunka Kaikan, the Hamburg Laeiszhalle, Lisbon’s Belem Cultural Center, and many others. She has also appeared at numerous Music Festivals such as the Verbier Festival, Menuhin Festival Gstaad, Orpheum Music Festival and Musikdorf Ernen (Switzerland), Annecy Classic Festival and Violon sur le sable (France), Ravinia Festival and IKIF (USA), Absolute Classics festival in Scotland, the Rubinstein Piano Festival and Chopin Festival (Poland), the International Piano Festival in Trieste (Italy), The Corfu Festival of Arts (Greece), International Chamber Music Festival Koblenz (Germany) and others.

Having mastered a formidable concerto repertoire, she has been performing with orchestras around the world, including the Philharmonia Orchestra and Royal Philharmonic (London), Hong Kong Philharmonic Orchestra, Dallas Symphony, Kyoto Symphony, Yomiuri Nippon Symphony orchestra, and the Tokyo New City Orchestra (Japan), the Netherlands Philharmonic, Residentie Orkest, and the Camerata Amsterdam (Netherlands), Orchestre Lamoureux (France), the Orquestra Filarmonica de Buenos Aires (Argentina), the Orchestre de Chambre de Lausanne (Switzerland), the Philarmonia of the Nations and the Nordwestdeutsche Philharmonie (Germany), Orquesta Sinfonica Nacional de Mexico, the Israel Chamber Orchestra.Anna has had the pleasure of performing with great conductors, including Jaap Van Zweden, Jun Markl, Benjamin Zander, Olari Elts, Carlos Miguel Prieto, Christian Schumann, Tatsuya Shimono, Andrew Grams and Martin Panteleev.

Anna has claimed top prizes at numerous international piano competitions, including the International Rubinstein 'In Memoriam' piano competition, the Moscow International Frederick Chopin Competition for young pianists, the Lyon Piano Competition, and recently became recipient of the Verbier Festival Academy Award. She is also two-time laureate of the Dorothy MacKenzie Artist Recognition Scholarship Award at the International Keyboards Institute & Festival (New York, USA). Anna graduated with distinction from the Royal College of Music under the guidance of Norma Fischer. She also studied at the prestigious Accademia Pianistica in Imola, Italy with Leonid Margarius, as well as the Lysenko School of Music in Kyiv with Borys Fedorov. She has also received mentorship from world renowned musicians such as Alfred Brendel, Menahem Pressler, Steven Isserlis and Andras Schiff.

As a recording artist, Anna is signed with the Dutch record Channel Classic. There are 3 CD’s planned to be released in 2019. Solo CD “The Story Teller”, Rachmaninoff CD with the orchestra of St. Gallen, and a duo CD with violist Dana Zemtsov. After joining Channel Classics Anna’s solo CD, “Four Fantasies” was released shortly after to much critical acclaim. Other CD’s include Brahms, Liszt and Chopin, released by the DiscAnnecy Label and the Rachmaninoff CD with Piano Classics. 2016 marked the release of 3 more albums - with Rachmaninoff 3rd piano Concerto and Mussorgsky “Pictures at an Exhibition”, and two duo CDs are - with german Cellist Benedict Kloeckner and works of Chopin and Frank, and with turkish cellist Jamal Aliyev and works by Russian composers. In 2018 In the 2015-2016 Anna was the artist in residence in Edesche Concert hall in Ede, Netherlands. In 2017 and 28 she became the artistic director and co-founder of the International Chamber Music Festival, Ede.

Highlights of 2019 include engagements with the Philharmonia Orchestra and Utah Symphony Orchestra, Tangos with Marelo Nisinman in the Concertgebouw Amsterdam, tours of Japan with the State Symphony Capella of Russia and Brasil with the Boston Philharmonic Youth Orchstra, the Sintra Festival in Portugal, and 3 CD releases with Channel Classics.


Золотий реліз (завантажене не впливає на рейтинг)
 Трекер:    Зареєстрований   

Завантажити / скачати українську музику



відео для новачків



 Зареєстрований:   2020-01-07 17:52
 Розмір:   3.13 GB 
 Оцінка музики:   10/10 (Голосів: 8)
   
kolpavel 
VIP


З нами з: 04.05.14
Востаннє: 03.03.21
Повідомлень: 1375

2019-09-17 09:19  
7 сiчня 2020 року додав альбом " Storyteller / Chopin, Liszt, Scriabin" таке логiчне продовження альбому 2018 року "Чотири фантазії".




P.S. І пора вже подумати модераторам про новий (та де там новий, як вже i старий) формат DSD. Цей альбом я конвертував з DSD.

jaral 
Забанено
Забанено


З нами з: 18.10.07
Востаннє: 21.01.20
Повідомлень: 973

2020-01-09 07:01  
kolpavel написано:
я конвертував з DSD.
Чому не реліз не викладено в орг. форматі?
Ваш часовий пояс: GMT + 2 Години

Нова тема   Відповісти