Попіл і діамант / Popiól i diament (1958) AVC Ukr/Pol | Sub Pol

Нові коментарі

Нова тема   Відповісти
Автор Повідомлення
sergiyko.5 
VIP


З нами з: 25.02.16
Востаннє: 10.12.19
Повідомлень: 2812

2019-09-16 12:54  
Попіл і діамант / Popiól i diament (1958) AVC Ukr/Pol | sub Pol

Попіл і діамант / Popiól i diament (1958) AVC Ukr/Pol | Sub Pol

Жанр: Драма
Країна: Польща
Кінокомпанія: Studio Filmowe Kadr
Режисер: Анджей Вайда
Актори:Збігнєв Цибульський, Адам Павліковський, Богуміл Кобела, Ева Кшижевська, Вацлав Застшежинський, Адольф Хроницький, Ян Цецерський, Станіслав Мільскій, Збігнєв Сковронський, Ігнацій Мачовскі, Халіна Квятковська, Артур Млодніцький

Сюжет:
«Попіл і алмаз» (пол. Popiół i diament) — останній фільм «воєнної трилогії» польського режисера Анджея Вайди. Знятий за мотивами повісті Єжи Анджеєвського. Одне з найбільш значних досягнень польської кіношколи.

Звільнена від німців Польща, 8 травня 1945 року. Колишні бійці Армії Крайової, які боролися проти німецької окупації, а тепер «прокляті солдати». Мачек і його командир Анджей, знайомі ще з Варшавського повстання, отримують завдання вбити секретаря ПРП Щуку. Помилково вони розстрілюють робочих цементного заводу поблизу придорожньої каплиці. Вони повертаються в місто і приходять в ресторан готелю, щоб повідомити про хід операції майору.
У ресторані вони дізнаються, що Щука живий.Там же Мачек знайомиться з барменом Христиною. Мачек знімає кімнату в готелі по сусідству з кімнатою Щуки і запрошує туди Христину. Щука намагається з'ясувати долю свого сина у сестри дружини Станевич.




Тривалість: 01:42:43
Якість:

Відео: кодек: розмір кадру: 1056 х 640 бітрейт: 2200 кб/с
Аудіо 1: мова: українська переклад: багатоголосий закадровий кодек: 2.0 бітрейт: 192 кб/с
Аудіо 2: мова: польська переклад: оригінал кодек: 2.0 бітрейт: 224 кб/с
Субтитри: мова: польська тип: програмні (м'які) формат: *.srt
Про файл:
General
Unique ID : 196427951594703626842514598318119334103 (0x93C6A5BB4A936A550EDED231C2AC30D7)
Complete name : D:\Documents\Torrents\FILM\Popiol i diament.1958..Ukr.Pol.
Format :
Format version : Version 4
File size : 1.88 GiB
Duration : 1 h 42 min
Overall bit rate : 2 620 kb/s
Movie name : rip by sergiyko
Encoded date : UTC 2019-09-16 11:51:36
Writing application : v36.0.0 ('Is That Jazz?') 64-bit
Writing library : libebml v1.3.9 + v1.5.2

Video
ID : 1
Format : AVC
Format/Info : Advanced Video Codec
Format profile : [email protected]
Format settings : CABAC / 8 Ref Frames
Format settings, CABAC : Yes
Format settings, Reference : 8 frames
Codec ID : V_MPEG4/ISO/AVC
Duration : 1 h 42 min
Bit rate : 2 202 kb/s
Width : 1 056 pixels
Height : 640 pixels
Display aspect ratio : 5:3
Frame rate mode : Constant
Frame rate : 23.976 (24000/1001) FPS
Color space : YUV
Chroma subsampling : 4:2:0
Bit depth : 8 bits
Scan type : Progressive
Bits/(Pixel*Frame) : 0.136
Stream size : 1.58 GiB (84%)
Writing library : core 125 r2200 999b753
Encoding settings : cabac=1 / ref=8 / deblock=1:-2:-2 / analyse=0x3:0x113 / me=umh / subme=10 / psy=1 / psy_rd=1.00:0.05 / mixed_ref=1 / me_range=32 / chroma_me=1 / trellis=2 / 8x8dct=1 / cqm=0 / deadzone=21,11 / fast_pskip=0 / chroma_qp_offset=-3 / threads=3 / lookahead_threads=1 / sliced_threads=0 / nr=0 / decimate=0 / interlaced=0 / bluray_compat=0 / constrained_intra=0 / bframes=10 / b_pyramid=2 / b_adapt=2 / b_bias=0 / direct=3 / weightb=1 / open_gop=0 / weightp=2 / keyint=230 / keyint_min=23 / scenecut=40 / intra_refresh=0 / rc=2pass / mbtree=0 / bitrate=2202 / ratetol=1.0 / qcomp=0.60 / qpmin=0 / qpmax=51 / qpstep=4 / cplxblur=20.0 / qblur=0.5 / ip_ratio=1.40 / pb_ratio=1.30 / aq=1:0.90
Language : Polish
Default : Yes
Forced : No

Audio #1
ID : 2
Format : AC-3
Format/Info : Audio Coding 3
Commercial name : Dolby Digital
Codec ID : A_AC3
Duration : 1 h 42 min
Bit rate mode : Constant
Bit rate : 192 kb/s
Channel(s) : 2 channels
Channel layout : L R
Sampling rate : 48.0 kHz
Frame rate : 31.250 FPS (1536 SPF)
Bit depth : 16 bits
Compression mode : Lossy
Stream size : 141 MiB (7%)
Title : MOV
Language : Ukrainian
Service kind : Complete Main
Default : Yes
Forced : Yes

Audio #2
ID : 3
Format : AC-3
Format/Info : Audio Coding 3
Commercial name : Dolby Digital
Codec ID : A_AC3
Duration : 1 h 42 min
Bit rate mode : Constant
Bit rate : 224 kb/s
Channel(s) : 2 channels
Channel layout : L R
Sampling rate : 48.0 kHz
Frame rate : 31.250 FPS (1536 SPF)
Bit depth : 16 bits
Compression mode : Lossy
Stream size : 165 MiB (9%)
Title : 2ch @ 224 kbps |Original|
Language : Polish
Service kind : Complete Main
Default : No
Forced : No

Text
ID : 4
Format : UTF-8
Codec ID : S_TEXT/UTF8
Codec ID/Info : UTF-8 Plain Text
Duration : 1 h 40 min
Bit rate : 49 b/s
Count of elements : 993
Stream size : 36.2 KiB (0%)
Language : Polish
Default : No
Forced : No

Menu
00:00:00.000 : :00:00:00.000
00:13:12.416 : :00:13:12.416
00:15:11.160 : :00:15:11.160
00:30:20.401 : :00:30:20.401
00:37:12.939 : :00:37:12.939
00:46:21.278 : :00:46:21.278
00:51:18.950 : :00:51:18.950
00:57:28.361 : :00:57:28.361
01:07:50.441 : :01:07:50.441
01:26:00.321 : :01:26:00.321
01:32:00.348 : :01:32:00.348
01:37:46.402 : :01:37:46.402
01:42:40.946 : :01:42:40.946
Скріншоти:


Запис/зведення: sergiyko


Срібний реліз (на рейтинг впливає 50% завантаженого)
 Трекер:    Зареєстрований   

Завантажити / скачати фільм українською



відео для новачків



 Зареєстрований:   2019-09-16 13:59
 Розмір:   1.88 GB 
 Оцінка фільму:   8.6/10 (Голосів: 7)
   
Інші релізи
bot 
робот


З нами з: 30.09.07
Востаннє: 26.05.05
Повідомлень: 22605

2019-09-16 12:54  
Тему перенесено з Фільми до форуму Анонси релізів


sergiyko.5

bot 
робот


З нами з: 30.09.07
Востаннє: 26.05.05
Повідомлень: 22605

2019-09-16 13:58  
Тему перенесено з Анонси релізів до форуму Фільми


sergiyko.5

Ваш часовий пояс: GMT + 2 Години

Нова тема   Відповісти