За мрією / Teen Spirit (2018) 720p Ukr/Eng | Sub Eng

Нові коментарі

Нова тема   Відповісти
Автор Повідомлення
sergiyko.5 
Попереджень: 1
Попереджень: 1 


З нами з: 25.02.16
Востаннє: 27.09.20
Повідомлень: 3474

2019-09-16 13:10  
За мрією / Teen Spirit (2018) 720p Ukr/Eng | Sub Eng


За мрією / Teen Spirit (2018) 720p Ukr/Eng | Sub Eng

Жанр: драма, музичний
Країна: США, Велика Британія



Кінокомпанія: Automatik, Aperture Media Partners, Blank Tape
Режисер: Макс Мінгелла
Актори: Міллі Брейді, Ель Фаннінг, Ребекка Голл, Елізабет Беррінгтон, Златко Буріч, Вікторія Фейт

Сюжет:
На сором’язливу дівчину на ім’я Вайолет чекає участь у національному вокальному конкурсі, де вона повинна буде продемонструвати свій талант, а також впоратися з невпевненістю й перевірити свої амбіції. Героїня з дитинства мріє втекти зі свого невеликого містечка і стати популярною поп-зіркою. Можливо, цього разу її мрія здійсниться.


Тривалість: 01:33:54
Якість:

Відео: кодек: розмір кадру: 1280 х 536 бітрейт: 5150 кб/с
Аудіо 1: мова: українська переклад: професійний дубльований кодек: 2.0 бітрейт: 192 кб/с
Аудіо 2: мова: англійська переклад: оригінал кодек: 5.1 бітрейт: 1509 кб/с
Субтитри 1: (Forced) мова: українська тип: програмні (м'які) формат: *.srt / на неперекладені місця /
Субтитри 2,3: (Full, SDH) мова: англійська тип: програмні (м'які) формат: *.srt
Про файл:
General
Unique ID : 318833195376114947558536424145939103623 (0xEFDD0A31E70DE9C86CCB7797C37C7F87)
Complete name : D:\Documents\Torrents\FILM\Teen Spirit.2018.720p..Ukr.Eng.
Format :
Format version : Version 4
File size : 4.50 GiB
Duration : 1 h 33 min
Overall bit rate : 6 856 kb/s
Movie name : Teen Spirit 2018 720p by sergiyko
Encoded date : UTC 2019-09-16 13:11:21
Writing application : v36.0.0 ('Is That Jazz?') 64-bit
Writing library : libebml v1.3.9 + v1.5.2
Cover : Yes
Attachments : cover.jpeg

Video
ID : 1
Format : AVC
Format/Info : Advanced Video Codec
Format profile : [email protected]
Format settings : CABAC / 5 Ref Frames
Format settings, CABAC : Yes
Format settings, Reference : 5 frames
Codec ID : V_MPEG4/ISO/AVC
Duration : 1 h 33 min
Bit rate : 5 154 kb/s
Width : 1 280 pixels
Height : 536 pixels
Display aspect ratio : 2.40:1
Frame rate mode : Constant
Frame rate : 23.976 FPS
Color space : YUV
Chroma subsampling : 4:2:0
Bit depth : 8 bits
Scan type : Progressive
Bits/(Pixel*Frame) : 0.313
Stream size : 3.38 GiB (75%)
Title : Teen Spirit 2018
Writing library : core 157 r2969 d4099dd
Encoding settings : cabac=1 / ref=5 / deblock=1:-3:-3 / analyse=0x3:0x113 / me=umh / subme=8 / psy=1 / psy_rd=1.00:0.00 / mixed_ref=1 / me_range=16 / chroma_me=1 / trellis=1 / 8x8dct=1 / cqm=0 / deadzone=21,11 / fast_pskip=1 / chroma_qp_offset=-2 / threads=17 / lookahead_threads=2 / sliced_threads=0 / nr=0 / decimate=1 / interlaced=0 / bluray_compat=0 / constrained_intra=0 / bframes=3 / b_pyramid=2 / b_adapt=1 / b_bias=0 / direct=3 / weightb=1 / open_gop=0 / weightp=2 / keyint=250 / keyint_min=23 / scenecut=40 / intra_refresh=0 / rc_lookahead=50 / rc=2pass / mbtree=1 / bitrate=5154 / ratetol=1.0 / qcomp=0.60 / qpmin=0 / qpmax=69 / qpstep=4 / cplxblur=20.0 / qblur=0.5 / ip_ratio=1.40 / aq=1:1.00
Language : English
Default : Yes
Forced : No

Audio #1
ID : 2
Format : AC-3
Format/Info : Audio Coding 3
Commercial name : Dolby Digital
Codec ID : A_AC3
Duration : 1 h 33 min
Bit rate mode : Constant
Bit rate : 192 kb/s
Channel(s) : 2 channels
Channel layout : L R
Sampling rate : 48.0 kHz
Frame rate : 31.250 FPS (1536 SPF)
Bit depth : 16 bits
Compression mode : Lossy
Stream size : 129 MiB (3%)
Title : DUB
Language : Ukrainian
Service kind : Complete Main
Default : Yes
Forced : Yes

Audio #2
ID : 3
Format :
Format/Info : Digital Theater Systems
Codec ID : A_DTS
Duration : 1 h 33 min
Bit rate mode : Constant
Bit rate : 1 509 kb/s
Channel(s) : 6 channels
Channel layout : C L R Ls Rs LFE
Sampling rate : 48.0 kHz
Frame rate : 93.750 FPS (512 SPF)
Bit depth : 24 bits
Compression mode : Lossy
Stream size : 1 013 MiB (22%)
Title : Original
Language : English
Default : No
Forced : No

Text #1
ID : 4
Format : UTF-8
Codec ID : S_TEXT/UTF8
Codec ID/Info : UTF-8 Plain Text
Duration : 36 s 993 ms
Bit rate : 133 b/s
Count of elements : 18
Stream size : 619 Bytes (0%)
Title : Forced
Language : Ukrainian
Default : Yes
Forced : Yes

Text #2
ID : 5
Format : UTF-8
Codec ID : S_TEXT/UTF8
Codec ID/Info : UTF-8 Plain Text
Duration : 1 h 32 min
Bit rate : 52 b/s
Count of elements : 1214
Stream size : 35.4 KiB (0%)
Title : Full
Language : English
Default : No
Forced : No

Text #3
ID : 6
Format : UTF-8
Codec ID : S_TEXT/UTF8
Codec ID/Info : UTF-8 Plain Text
Duration : 1 h 33 min
Bit rate : 60 b/s
Count of elements : 1428
Stream size : 41.5 KiB (0%)
Title : SDH
Language : English
Default : No
Forced : No

Menu
00:00:00.000 : en:00:00:00.000
00:04:25.515 : en:00:04:25.515
00:08:19.416 : en:00:08:19.416
00:14:50.765 : en:00:14:50.765
00:19:28.667 : en:00:19:28.667
00:24:12.117 : en:00:24:12.117
00:27:05.749 : en:00:27:05.749
00:30:27.617 : en:00:30:27.617
00:34:23.061 : en:00:34:23.061
00:39:28.157 : en:00:39:28.157
00:44:32.169 : en:00:44:32.169
00:49:56.702 : en:00:49:56.702
00:54:09.121 : en:00:54:09.121
01:00:51.189 : en:01:00:51.189
01:06:30.737 : en:01:06:30.737
01:09:43.429 : en:01:09:43.429
01:13:07.383 : en:01:13:07.383
01:18:45.054 : en:01:18:45.054
01:22:50.716 : en:01:22:50.716
01:28:40.232 : en:01:28:40.232
Скріншоти:


Запис/зведення: sergiyko


 Трекер:    Зареєстрований   

Завантажити / скачати фільм українською



відео для новачків



 Зареєстрований:   2019-09-16 16:17
 Розмір:   4.5 GB 
 Оцінка фільму:   8.4/10 (Голосів: 10)
   
Інші релізи
   За мрією / Teen Spirit (2018) antik_2008  0 / 0   1.3 GB   2019-09-20 21:07 
   За мрією / Teen Spirit (2018) AVC Ukr/Eng | Sub Eng 11FrYkT  3 / 0   1.62 GB   2019-09-19 09:01 
   За мрією / Teen Spirit (2018) Remux 1080p Ukr/Eng | Sub Eng antik_2008  2 / 0   27.86 GB   2019-09-19 08:19 
   За мрією / Teen Spirit (2018) 1080p H.265 Ukr/Eng | Sub Eng -Star-Lord-  0 / 0   5.66 GB   2019-09-18 22:25 
   За мрією / Teen Spirit (2018) 1080p Ukr/Eng | Sub Eng -Star-Lord-  0 / 0   10.17 GB   2019-09-18 22:24 
bot 
робот


З нами з: 30.09.07
Востаннє: 26.05.05
Повідомлень: 25615

2019-09-16 16:17  
Тему перенесено з Анонси релізів до форуму Фільми в HD


sergiyko.5

sergiyko.5 
Попереджень: 1
Попереджень: 1 


З нами з: 25.02.16
Востаннє: 27.09.20
Повідомлень: 3474

2019-09-16 16:22  
Роздача буде пізніше.
casper101 
VIP


З нами з: 03.12.09
Востаннє: 26.09.20
Повідомлень: 449

2019-09-16 19:40  
Юнацький дух
sergiyko.5 
Попереджень: 1
Попереджень: 1 


З нами з: 25.02.16
Востаннє: 27.09.20
Повідомлень: 3474

2019-09-18 14:33  
Новинка європейського кіно.
Sunx 
Новенький


З нами з: 31.07.14
Востаннє: 24.09.20
Повідомлень: 11

2019-09-18 17:35  
Цитата:
Актори: Міллі Брейді, Ель Фаннінг, Ребекка Голл, Елізабет Беррінгтон, Златко Буріч, Вікторія Фейт

Авторе, поясніть, звідки ви берете дані про фільм, насамперед про акторський склад. Ні тут, ні на вікі/IMDB не вказана в ролях Вікторія Фейт.

igor911 
Модератор відео


З нами з: 18.01.08
Востаннє: 27.09.20
Повідомлень: 15006

2019-09-18 17:38  
Sunx написано:
ні на вікі/IMDB не вказана в ролях Вікторія Фейт

це мабуть Viktorija Faith https://www.imdb.com/name/nm8148631/ і вона вказана https://www.imdb.com/title/tt6483364/fullcredits

Sunx 
Новенький


З нами з: 31.07.14
Востаннє: 24.09.20
Повідомлень: 11

2019-09-19 18:44  
igor911 написано:
це мабуть Viktorija Faith

Я шукав через Victoria. Тепер все стало на свої місця)

Ваш часовий пояс: GMT + 2 Години

Нова тема   Відповісти