Золота молодь (Golden Youth) / Une jeunesse dorée (2019) AVC Ukr/Fre

Нові коментарі

Нова тема   Відповісти
Автор Повідомлення
sergiyko.5 
VIP


З нами з: 25.02.16
Востаннє: 23.10.19
Повідомлень: 2695

2019-09-16 12:14  
Золота молодь (Golden Youth) / Une jeunesse dorée (2019) AVC Ukr/Fre


Золота молодь (Golden Youth) / Une jeunesse dorée (2019) AVC Ukr/Fre

Жанр: драма
Країна: Бельгія, Франція
Кінокомпанія: Canal+, Centre National de la Cinématographie
Режисер: Єва Йонеско
Актори: Ізабель Юппер, Мельвіль Пупо, Ґалатеа Беллуджі, Лукас Йонеско, Ален-Фаб'єн Делон, Брайан Скотт Беглі, Нассим, Гвізані, Манал Ісса, Бенуа Соулз, Юго Діллон

Сюжет:
Париж, столиця Франції, 1979 рік. Шістнадцятирічна Роуз із її двадцятидворічним нареченим Мішелем проживають разом їх першу по-юнацькому безмежну та справжню любовну історію в житті. Нехай у них не так багато грошей, як хотілося би, але це далеко не найважливіше в житті. Вони постійно на вечірках, це те, де вони відчувають себе як у своїй тарілці. Роуз і Мішель живуть кожен день як останній, не думаючи про те, що буде колись. Все, що їм потрібно – це неймовірні зустрічі кожної ночі, із якими можна та потрібно проводити час. На одній із таких вечірок Роуз і Мішель зустріли пару ледачих багатіїв Люсіль і Х'юберта. Останні вирішили взяти молодих хлопця та дівчину під своє крило. Їх життя стануть набагато ближчими, ніж можна навіть уявити...




Тривалість: 01:47:58
Якість:

Відео: кодек: розмір кадру: 1024 х 552 бітрейт: 2222 кб/с
Аудіо 1: мова: українська переклад: багатоголосий закадровий кодек: 2.0 бітрейт: 192 кб/с
Аудіо 2: мова: французька переклад: оригінал кодек: 2.0 бітрейт: 192 кб/с
Про файл:
General
Unique ID : 266730280470499494120390990221013443568 (0xC8AA6228076CA57522AA07EFA4C863F0)
Complete name : D:\Documents\Torrents\FILM\Une Jeunesse Doree.2019..Ukr.Fre.
Format :
Format version : Version 4
File size : 1.97 GiB
Duration : 1 h 47 min
Overall bit rate : 2 607 kb/s
Movie name : Une Jeunesse Doree 2019 by sergiyko
Encoded date : UTC 2019-09-16 09:02:38
Writing application : v36.0.0 ('Is That Jazz?') 64-bit
Writing library : libebml v1.3.9 + v1.5.2
Cover : Yes
Attachments : cover.jpeg

Video
ID : 1
Format : AVC
Format/Info : Advanced Video Codec
Format profile : [email protected]
Format settings : CABAC / 12 Ref Frames
Format settings, CABAC : Yes
Format settings, Reference : 12 frames
Codec ID : V_MPEG4/ISO/AVC
Duration : 1 h 47 min
Bit rate : 2 222 kb/s
Width : 1 024 pixels
Height : 552 pixels
Display aspect ratio : 1.85:1
Frame rate mode : Constant
Frame rate : 25.000 FPS
Color space : YUV
Chroma subsampling : 4:2:0
Bit depth : 8 bits
Scan type : Progressive
Bits/(Pixel*Frame) : 0.157
Stream size : 1.68 GiB (85%)
Title : Une Jeunesse Doree 2019
Writing library : core 157 r2969 d4099dd
Encoding settings : cabac=1 / ref=12 / deblock=1:-1:-1 / analyse=0x3:0x133 / me=umh / subme=9 / psy=1 / psy_rd=1.00:0.15 / mixed_ref=1 / me_range=24 / chroma_me=1 / trellis=2 / 8x8dct=1 / cqm=0 / deadzone=21,11 / fast_pskip=1 / chroma_qp_offset=-3 / threads=17 / lookahead_threads=2 / sliced_threads=0 / nr=0 / decimate=1 / interlaced=0 / bluray_compat=0 / constrained_intra=0 / bframes=8 / b_pyramid=2 / b_adapt=2 / b_bias=0 / direct=3 / weightb=1 / open_gop=0 / weightp=2 / keyint=250 / keyint_min=25 / scenecut=40 / intra_refresh=0 / rc_lookahead=60 / rc=crf / mbtree=1 / crf=18.0 / qcomp=0.60 / qpmin=0 / qpmax=69 / qpstep=4 / ip_ratio=1.40 / aq=1:1.00
Language : French
Default : Yes
Forced : No

Audio #1
ID : 2
Format : LC
Format/Info : Advanced Audio Codec Low Complexity
Codec ID : A_AAC-2
Duration : 1 h 47 min
Bit rate : 192 kb/s
Channel(s) : 2 channels
Channel layout : L R
Sampling rate : 44.1 kHz
Frame rate : 43.066 FPS (1024 SPF)
Compression mode : Lossy
Stream size : 146 MiB (7%)
Title : MOV
Language : Ukrainian
Default : Yes
Forced : Yes

Audio #2
ID : 3
Format : LC
Format/Info : Advanced Audio Codec Low Complexity
Codec ID : A_AAC-2
Duration : 1 h 47 min
Bit rate : 192 kb/s
Channel(s) : 2 channels
Channel layout : L R
Sampling rate : 48.0 kHz
Frame rate : 46.875 FPS (1024 SPF)
Compression mode : Lossy
Delay relative to video : 21 ms
Stream size : 148 MiB (7%)
Title : Original
Language : French
Default : No
Forced : No
Скріншоти:


 Трекер:    Зареєстрований   

Завантажити / скачати фільм українською



відео для новачків



 Зареєстрований:   2019-09-16 12:14
 Розмір:   1.97 GB 
 Оцінка фільму:   8.4/10 (Голосів: 17)
   
Інші релізи
rev123 
Частий відвідувач


З нами з: 05.04.13
Востаннє: 20.10.19
Повідомлень: 25

2019-09-18 15:50  
Декаданс і деградасьйон...
antik_2008 
Релізер і модератор відео


З нами з: 20.10.08
Востаннє: 23.10.19
Повідомлень: 2511

2019-09-20 20:16  
sergiyko.5
аві чекати від вас ?

sergiyko.5 
VIP


З нами з: 25.02.16
Востаннє: 23.10.19
Повідомлень: 2695

2019-09-20 22:44  
antik_2008
Ні.

Ваш часовий пояс: GMT + 2 Години

Нова тема   Відповісти