Секрети домашніх тварин 2 / The Secret Life of Pets 2 (2019) 1080p H.265 Ukr/Eng | Sub Eng

Нові коментарі

Нова тема   Відповісти
Автор Повідомлення
Anonymous 







2019-09-15 11:04  
Секрети домашніх тварин 2 / The Secret Life of Pets 2 (2019) 1080p H.265 Ukr/Eng | Sub Eng

Секрети домашніх тварин 2 / The Secret Life of Pets 2 (2019) 1080p H.265 Ukr/Eng | Sub Eng


Жанр: комедія, мультфільм, пригодницький, сімейний
Країна: США, Франція, Японія
Кінокомпанія: Universal Pictures, Illumination Entertainment, Dentsu
Режисер: Кріс Рено, Джонатан дель Валь
Актори: Петтон Освальт, Кевін Харт, Гаррісон Форд, Ерік Стоунстріт, Дженні Слейт, Тіффані Хеддіш, Лейк Белл, Дена Карві, Боббі Мойнахан, Геннібал Бересс

Сюжет:
Славетні домашні улюбленці повертаються! Ми й не підозрюємо, скільки усього вони встигають, коли нас немає поруч. Відомі герої і нові «темні конячки», ще більше карколомних пригод і багато пухнастих секретів у комедії для всієї родини!

Тривалість: 01:26:03
Якість:

Відео:
кодек: H.265 (HEVC)
розмір кадру: 1920 x 1040
бітрейт: 6 877 кб/с
бітова глибина: 10 біт

Увага! Перед завантаженням переконайтесь, що ваш пристрій відтворення (та/або ПЗ) підтримує H.265 (HEVC)

Аудіо # 1:
мова: українська
переклад: професійний дубльований | Студія LeDoyen
кодек: AC-3 2.0
бітрейт: 192 кб/с

Аудіо # 2:
мова: англійська
переклад: оригінал
кодек: 5.1
бітрейт: 1510 кб/с

Субтитри # 1: (Forced)
мова: українська
тип: програмні (м'які)
формат: *.srt

Субтитри # 2-3: (Full, SDH)
мова: англійська
тип: програмні (м'які)
формат: *.srt


Info
Код:
General
Unique ID                                : 185182092456599406367915774979899532311 (0x8B50C61160654D6B391D183604362417)
Complete name                            : The Secret Life of Pets 2 (2019) 1080p H.265 [UKR_ENG] [Hurtom].
Format                                   :
Format version                           : Version 4
File size                                : 5.16 GiB
Duration                                 : 1 h 26 min
Overall bit rate                         : 8 580 kb/s
Movie name                               : Секрети домашніх тварин 2 / The Secret Life of Pets 2 (2019)
Encoded date                             : UTC 2019-09-15 08:56:48
Writing application                      : v20.0.0 ('I Am The Sun') 64-bit
Writing library                          : libebml v1.3.5 + v1.4.8
Cover                                    : Yes
Attachments                              : cover.jpg

Video
ID                                       : 1
Format                                   : HEVC
Format/Info                              : High Efficiency Video Coding
Format profile                           : Main [email protected]@High
Codec ID                                 : V_MPEGH/ISO/HEVC
Duration                                 : 1 h 26 min
Bit rate                                 : 6 876 kb/s
Width                                    : 1 920 pixels
Height                                   : 1 040 pixels
Display aspect ratio                     : 1.85:1
Frame rate mode                          : Constant
Frame rate                               : 23.976 (24000/1001) FPS
Color space                              : YUV
Chroma subsampling                       : 4:2:0
Bit depth                                : 10 bits
Bits/(Pixel*Frame)                       : 0.144
Stream size                              : 4.13 GiB (80%)
Title                                    : Секрети домашніх тварин 2 / The Secret Life of Pets 2 (2019)
Language                                 : English
Default                                  : Yes
Forced                                   : No
Color range                              : Limited
Color primaries                          : BT.709
Transfer characteristics                 : BT.709
Matrix coefficients                      : BT.709

Audio #1
ID                                       : 2
Format                                   : AC-3
Format/Info                              : Audio Coding 3
Commercial name                          : Dolby Digital
Codec ID                                 : A_AC3
Duration                                 : 1 h 26 min
Bit rate mode                            : Constant
Bit rate                                 : 192 kb/s
Channel(s)                               : 2 channels
Channel layout                           : L R
Sampling rate                            : 48.0 kHz
Frame rate                               : 31.250 FPS (1536 SPF)
Bit depth                                : 16 bits
Compression mode                         : Lossy
Stream size                              : 118 MiB (2%)
Title                                    : / 2.0 Ch / 192 kbps / ПД / Студія LeDoyen
Language                                 : Ukrainian
Service kind                             : Complete Main
Default                                  : Yes
Forced                                   : Yes

Audio #2
ID                                       : 3
Format                                   :
Format/Info                              : Digital Theater Systems
Codec ID                                 : A_DTS
Duration                                 : 1 h 26 min
Bit rate mode                            : Constant
Bit rate                                 : 1 509 kb/s
Channel(s)                               : 6 channels
Channel layout                           : C L R Ls Rs LFE
Sampling rate                            : 48.0 kHz
Frame rate                               : 93.750 FPS (512 SPF)
Bit depth                                : 16 bits
Compression mode                         : Lossy
Stream size                              : 929 MiB (18%)
Title                                    : / 5.1 Ch / 1509 kbps / Original
Language                                 : English
Default                                  : No
Forced                                   : No

Text #1
ID                                       : 4
Format                                   : UTF-8
Codec ID                                 : S_TEXT/UTF8
Codec ID/Info                            : UTF-8 Plain Text
Duration                                 : 1 h 20 min
Bit rate                                 : 0 b/s
Count of elements                        : 2
Stream size                              : 126 Bytes (0%)
Title                                    : Forced
Language                                 : Ukrainian
Default                                  : Yes
Forced                                   : Yes

Text #2
ID                                       : 5
Format                                   : UTF-8
Codec ID                                 : S_TEXT/UTF8
Codec ID/Info                            : UTF-8 Plain Text
Duration                                 : 1 h 25 min
Bit rate                                 : 53 b/s
Count of elements                        : 1324
Stream size                              : 33.3 KiB (0%)
Title                                    : Full
Language                                 : English
Default                                  : No
Forced                                   : No

Text #3
ID                                       : 6
Format                                   : UTF-8
Codec ID                                 : S_TEXT/UTF8
Codec ID/Info                            : UTF-8 Plain Text
Duration                                 : 1 h 25 min
Bit rate                                 : 77 b/s
Count of elements                        : 1924
Stream size                              : 48.5 KiB (0%)
Title                                    : SDH
Language                                 : English
Default                                  : No
Forced                                   : No

Menu
00:00:00.000                             : en:Chapter 01
00:05:34.542                             : en:Chapter 02
00:10:07.815                             : en:Chapter 03
00:13:26.305                             : en:Chapter 04
00:16:39.790                             : en:Chapter 05
00:19:56.945                             : en:Chapter 06
00:24:10.073                             : en:Chapter 07
00:28:15.735                             : en:Chapter 08
00:30:54.269                             : en:Chapter 09
00:35:15.113                             : en:Chapter 10
00:39:55.976                             : en:Chapter 11
00:45:47.327                             : en:Chapter 12
00:49:51.822                             : en:Chapter 13
00:56:54.994                             : en:Chapter 14
00:58:35.220                             : en:Chapter 15
01:02:48.931                             : en:Chapter 16
01:07:16.615                             : en:Chapter 17
01:12:48.822                             : en:Chapter 18
01:15:21.808                             : en:Chapter 19
01:18:10.018                             : en:Chapter 20
Світлини




Джерело: &
Особиста оцінка: 0 - не дивився


 Трекер:    Зареєстрований   

Завантажити / скачати мультфільм українською



відео для новачків



 Зареєстрований:   2019-09-15 11:04
 Розмір:   5.16 GB 
 Оцінка мультфільму:   9.7/10 (Голосів: 29)
   
Ваш часовий пояс: GMT + 2 Години

Нова тема   Відповісти