Новачок / The Rookie (1990) Remux 1080p Ukr/Eng | Sub Eng

Нові коментарі

Нова тема   Відповісти
Автор Повідомлення
MakRA 
VIP


З нами з: 10.11.18
Востаннє: 22.11.19
Повідомлень: 537

2019-09-15 00:09  
Новачок / The Rookie (1990) Remux 1080p Ukr/Eng | Sub Eng


Український постер:

Жанр: кримінальний, драма, екшн
Країна: США



Кінокомпанія: Kazanjian/Siebert Productions, Malpaso Productions, Warner Bros. Pictures
Режисер: Клінт Іствуд [Clint Eastwood]
Актори: Клінт Іствуд [Clint Eastwood], Чарлі Шин [Charlie Sheen], Рауль Хуліа [Raul Julia], Соня Брага [Sônia Braga], Том Скерріт [Tom Skerritt], Лара Флінн Бойл [Lara Flynn Boyle], Пепе Серна [Pepe Serna], Мазко Родрігес [Marco Rodríguez], Піт Рендалл [Pete Randall], Донна Мітчелл [Donna Mitchell]

Сюжет:
Офіцер поліції Лос-Анджелеса Нік Пуловські разом зі своїм напарником ось уже цілий рік полює за бандою викрадачів автомобілів. Злочинці діють зухвало і масштабно, тому, коли напарники беруть слід, то, не чекаючи допомоги, самі вирішують арештувати злочинців. Але операція провалюється, напарник Ніка гине, а він сам ледь залишається в живих. Через кілька днів Нік отримує нового напарника, молодого офіцера Девіда Акермана. Девід з багатої сім'ї, закінчив університет. У дитинстві він став мимовільним винуватцем загибелі брата, і тепер відчуває страх і докори сумління. Незважаючи на відсторонення, Пуловські продовжує займатися розслідуванням. Обставини, в які потрапляють напарники, переслідуючи ватажка банди, змушують Девіда побороти свій страх.
Цікаві фактиї:

-Спочатку планувалося, що дія фільму відбуватиметься в Лондоні, Англія, але з часом плани помінялися.
-Коли Сара бачить по телевізору справжнього лейтенанта Гарсію, Локо перемикає канал, де показують гігантського тарантула. Це кадр з фільму «Тарантул» (1955). У цьому фільмі Клінт Іствуд грає незначну роль пілота винищувача, який атакує павука. Сцена, що використовується в «Новачку», як раз перед атакою.




Тривалість: 02:00:45
Якість: Remux 1080p
Відео:
кодек: VC-1
розмір кадру: 1920 х 1080
бітрейт: 18,1 Mб/с

Аудіо # 1:
мова: українська
переклад: багатоголосий закадровий
кодек: 5.1
бітрейт: 384 кб/с

Аудіо # 2:
мова: англійська
переклад: оригінал
кодек: -HD MA 5.1
бітрейт: 4149 кб/с

Аудіо # 3:
мова: англійська
переклад: оригінал
кодек: 5.1
бітрейт: 384 кб/с

Субтитри: (Full)
мова: англійська
тип: програмні (м'які)
формат: *.srt

Збережено оригінальні розділи, як на Blu-ray.
Info
General
Unique ID : 141012737969083580248825000313346789574 (0x6A1610C1F3A623BC8AAB57001EFF10C6)
Complete name : M:\+ Фільми в HD\Трилер, кримінальний\The Rookie (1990) Remux 1080p UkrEng Sub Eng [Hurtom].
Format :
Format version : Version 4
File size : 19.4 GiB
Duration : 2 h 0 min
Overall bit rate mode : Variable
Overall bit rate : 23.0 Mb/s
Movie name : Новачок / The Rookie (1990) Remux 1080p Ukr/Eng | Sub Eng [Hurtom] / The Rookie (1990) [tRuAVC @ HD Uploaders]
Encoded by : [tRuAVC @ HD Uploaders]Skazhutin
Released date : July 7th 2010
Encoded date : UTC 2019-09-12 08:06:42
Writing application : v25.0.0 ('Prog Noir') 64-bit
Writing library : libebml v1.3.6 + v1.4.9
Cover : Yes
Comment : // (Source: VC-1, 1920x1080p, 2.40:1, 18074 kbps, 23.976 fps)
Attachments : cover.png / xlog.txt

Video
ID : 1
Format : VC-1
Format profile : [email protected]
Codec ID : V_MS/VFW/FOURCC / WVC1
Codec ID/Hint : Microsoft
Duration : 2 h 0 min
Bit rate : 18.1 Mb/s
Width : 1 920 pixels
Height : 1 080 pixels
Display aspect ratio : 16:9
Frame rate mode : Constant
Frame rate : 23.976 (24000/1001) FPS
Color space : YUV
Chroma subsampling : 4:2:0
Bit depth : 8 bits
Scan type : Progressive
Compression mode : Lossy
Bits/(Pixel*Frame) : 0.364
Stream size : 15.2 GiB (79%)
Title : The Rookie (1990) Remux 1080p Ukr/Eng | Sub Eng [Hurtom]
Language : Ukrainian
Default : Yes
Forced : Yes

Audio #1
ID : 2
Format : AC-3
Format/Info : Audio Coding 3
Commercial name : Dolby Digital
Codec ID : A_AC3
Duration : 2 h 0 min
Bit rate mode : Constant
Bit rate : 384 kb/s
Channel(s) : 6 channels
Channel layout : L R C LFE Ls Rs
Sampling rate : 48.0 kHz
Frame rate : 31.250 FPS (1536 SPF)
Bit depth : 16 bits
Compression mode : Lossy
Stream size : 332 MiB (2%)
Title : MVO [НТН] 5.1
Language : Ukrainian
Service kind : Complete Main
Default : Yes
Forced : Yes

Audio #2
ID : 3
Format : XLL
Format/Info : Digital Theater Systems
Commercial name : -HD Master Audio
Codec ID : A_DTS
Duration : 2 h 0 min
Bit rate mode : Variable
Bit rate : 4 149 kb/s
Channel(s) : 6 channels
Channel layout : C L R Ls Rs LFE
Sampling rate : 48.0 kHz
Frame rate : 93.750 FPS (512 SPF)
Bit depth : 24 bits
Compression mode : Lossless
Stream size : 3.50 GiB (18%)
Title : Original -HD MA 5.1
Language : English
Default : No
Forced : No

Audio #3
ID : 4
Format : AC-3
Format/Info : Audio Coding 3
Commercial name : Dolby Digital
Codec ID : A_AC3
Duration : 2 h 0 min
Bit rate mode : Constant
Bit rate : 384 kb/s
Channel(s) : 6 channels
Channel layout : L R C LFE Ls Rs
Sampling rate : 48.0 kHz
Frame rate : 31.250 FPS (1536 SPF)
Bit depth : 16 bits
Compression mode : Lossy
Stream size : 332 MiB (2%)
Title : Original 5.1
Language : English
Service kind : Complete Main
Default : No
Forced : No

Text
ID : 5
Format : UTF-8
Codec ID : S_TEXT/UTF8
Codec ID/Info : UTF-8 Plain Text
Duration : 1 h 56 min
Bit rate : 39 b/s
Count of elements : 933
Stream size : 33.9 KiB (0%)
Title : Eng (SDH)
Language : English
Default : No
Forced : No

Menu #1
00:00:00.000 : en:Caught in a Lie
00:02:28.357 : en:Grand Theft Autio
00:07:25.737 : en:The Tooth Fairy
00:11:15.133 : en:Freeway Speedway
00:15:22.255 : en:Nick's New Partner
00:17:39.016 : en:Lunch Aftertaste
00:21:30.039 : en:Looking Over His Shoulder
00:24:12.326 : en:Something's Gonna Happen
00:25:40.539 : en:Where the Fun Starts
00:29:44.950 : en:Junkyard Persuasion
00:34:10.090 : en:Nick's Wheels
00:38:12.540 : en:No Guarantee
00:43:34.153 : en:Morales Goes For a Ride
00:47:15.875 : en:Ain't Gonna Lose This One
00:50:10.090 : en:Foiled Heist
00:54:22.426 : en:Improvised Hostage
00:56:57.998 : en:Stop Being Scared
00:59:31.151 : en:Go With a Bang
01:01:09.291 : en:Ackerman Fired Up
01:06:31.446 : en:Where He Wants Them
01:08:36.362 : en:Taken at the Cleaners
01:12:25.299 : en:Through Making Mistakes
01:15:03.916 : en:Biting Liesl's Bullet
01:20:47.843 : en:Sarah in Danger
01:25:18.238 : en:Next Time the Kneecaps
01:27:58.273 : en:No Getaway For Max
01:30:31.635 : en:Shooting the Works
01:33:29.771 : en:Fasten Your Seat Belt
01:37:09.574 : en:Pickup - and Detour
01:43:00.883 : en:Runway Mayhem
01:46:49.528 : en:Terminal Terror
01:49:07.708 : en:The Amateur's End
01:50:08.977 : en:Not One Good Reason
01:54:04.421 : en:David's New Partner
01:56:58.094 : en:End Credits

Menu #2
00:00:00.000 : en:Caught in a Lie
00:02:28.357 : en:Grand Theft Autio
00:07:25.737 : en:The Tooth Fairy
00:11:15.133 : en:Freeway Speedway
00:15:22.255 : en:Nick's New Partner
00:17:39.016 : en:Lunch Aftertaste
00:21:30.039 : en:Looking Over His Shoulder
00:24:12.326 : en:Something's Gonna Happen
00:25:40.539 : en:Where the Fun Starts
00:29:44.950 : en:Junkyard Persuasion
00:34:10.090 : en:Nick's Wheels
00:38:12.540 : en:No Guarantee
00:43:34.153 : en:Morales Goes For a Ride
00:47:15.875 : en:Ain't Gonna Lose This One
00:50:10.090 : en:Foiled Heist
00:54:22.426 : en:Improvised Hostage
00:56:57.998 : en:Stop Being Scared
00:59:31.151 : en:Go With a Bang
01:01:09.291 : en:Ackerman Fired Up
01:06:31.446 : en:Where He Wants Them
01:08:36.362 : en:Taken at the Cleaners
01:12:25.299 : en:Through Making Mistakes
01:15:03.916 : en:Biting Liesl's Bullet
01:20:47.843 : en:Sarah in Danger
01:25:18.238 : en:Next Time the Kneecaps
01:27:58.273 : en:No Getaway For Max
01:30:31.635 : en:Shooting the Works
01:33:29.771 : en:Fasten Your Seat Belt
01:37:09.574 : en:Pickup - and Detour
01:43:00.883 : en:Runway Mayhem
01:46:49.528 : en:Terminal Terror
01:49:07.708 : en:The Amateur's End
01:50:08.977 : en:Not One Good Reason
01:54:04.421 : en:David's New Partner
01:56:58.094 : en:End Credits
Скріншоти
Джерело: &
Подяка за наданий звук п. olgaya, за синхронізацію п. Romario_O, за укр. постер п. dr_stas
Особиста оцінка: 10 - без зайвих вагань рекомендую всім!


Золотий реліз (завантажене не впливає на рейтинг)
 Трекер:    Зареєстрований   

Завантажити / скачати фільм українською



відео для новачків



 Зареєстрований:   2019-09-15 00:09
 Розмір:   19.4 GB 
 Оцінка фільму:   10/10 (Голосів: 6)
   
Інші релізи
   Новачок / The Rookie (1990) AVC Ukr/Eng | Sub Eng staf777  2 / 0   2.24 GB   2018-12-08 11:28 
   Новачок / The Rookie (1990) 1080p Ukr/Eng | Sub Eng drop_plz  2 / 0   11.01 GB   2018-09-03 19:05 
   Новачок / The Rookie (1990) 720p Ukr/Eng | Sub Eng staf777  2 / 0   6.08 GB   2017-02-19 09:29 
   Новачок / The Rookie (1990) Ukr/Eng | Sub Eng Romario_O  2 / 0   2.18 GB   2010-10-16 20:13 
Ваш часовий пояс: GMT + 2 Години

Нова тема   Відповісти