Астрал / Insidious (2010) 1080p H.265 2xUkr/Eng | Sub Ukr/Eng

Нові коментарі

Нова тема   Відповісти
Автор Повідомлення
Anonymous 







2019-09-13 21:59  
Астрал / Insidious (2010) 1080p H.265 2xUkr/Eng | Sub Ukr/Eng

Астрал / Insidious (2010) 1080p H.265 2xUkr/Eng | Sub Ukr/Eng


Жанр: жахи, трилер
Країна: США
Кінокомпанія: FilmDistrict, Stage 6 Films, Alliance Films, IM Global, Haunted Movies, Automatik Entertainment, Blumhouse Productions
Режисер: Джеймс Ван (James Wan)
Актори: Патрік Вілсон (Patrick Wilson), Роуз Бірн (Rose Byrne), Ті Кіген Сімпкінс (Ty Simpkins), Ендрю Естор (Andrew Astor), Лін Шей (Lin Shaye), Лі Уоннел (Leigh Whannell), Енгус Семпсон (Angus Sampson), Барбара Херші (Barbara Hershey), Корбет Так (Corbett Tuck) та інші.

Сюжет:
Джош і Ріней переїжджають зі своїми дітьми в новий будинок, але не встигають навіть розпакувати речі, як починаються дивні події. Переміщуються предмети, в дитячій кімнаті лунають дивні звуки... Справжній жах охоплює батьків, коли їх десятирічний син Далтон впадає в кому. Всі зусилля лікарів в лікарні допомогти хлопчикові безуспішні. Кілька місяців по тому його повертають додому, де за нещасною дитиною доглядають мати і доглядальниця. Але загадкові явища в будинку тривають. Зневірені батьки готові звернутися за допомогою до кого завгодно і незабаром з'ясовується, що Далтон в несвідомому стані пов'язаний з паранормальним світом...

Тривалість: 01:42:52
Якість:

Відео:
кодек: H.265 (HEVC)
розмір кадру: 1920 x 800
бітрейт: 2 010 кб/с
бітова глибина: 10 біт

Увага! Перед завантаженням переконайтесь, що ваш пристрій відтворення (та/або ПЗ) підтримує H.265 (HEVC)

Аудіо # 1:
мова: українська
переклад: багатоголосий закадровий
кодек: AC-3 2.0
бітрейт: 192 кб/с

Аудіо # 2:
мова: українська
переклад: багатоголосий закадровий
кодек: AC-3 5.1
бітрейт: 384 кб/с


Аудіо # 3:
мова: англійська
переклад: оригінал
кодек: 5.1
бітрейт: 1510 кб/с

Субтитри # 1: (Full)
мова: українська
тип: програмні (м'які)
формат: *.srt

Субтитри # 2-4: (Full, SDH, SDH-Colored)
мова: англійська
тип: програмні (м'які)
формат: *.srt


Info
Код:
General
Unique ID                                : 46072675134571837127125125331948528336 (0x22A9464366DBC76C624A0A22C9EDE2D0)
Complete name                            : Insidious (2010) 1080p H.265 [2xUKR_ENG] [Hurtom].
Format                                   :
Format version                           : Version 4
File size                                : 2.94 GiB
Duration                                 : 1 h 42 min
Overall bit rate                         : 4 089 kb/s
Movie name                               : Астрал / Insidious (2010)
Encoded date                             : UTC 2019-09-13 18:53:31
Writing application                      : v20.0.0 ('I Am The Sun') 64-bit
Writing library                          : libebml v1.3.5 + v1.4.8
Cover                                    : Yes
Attachments                              : Cover.jpg

Video
ID                                       : 1
Format                                   : HEVC
Format/Info                              : High Efficiency Video Coding
Format profile                           : Main [email protected]@High
Codec ID                                 : V_MPEGH/ISO/HEVC
Duration                                 : 1 h 42 min
Bit rate                                 : 2 011 kb/s
Width                                    : 1 920 pixels
Height                                   : 800 pixels
Display aspect ratio                     : 2.40:1
Frame rate mode                          : Constant
Frame rate                               : 23.976 (24000/1001) FPS
Color space                              : YUV
Chroma subsampling                       : 4:2:0
Bit depth                                : 10 bits
Bits/(Pixel*Frame)                       : 0.055
Stream size                              : 1.44 GiB (49%)
Title                                    : Астрал / Insidious (2010)
Writing library                          : x265 2.9+9-f74003e88622:[Windows][GCC 7.3.0][64 bit] 10bit
Encoding settings                        : cpuid=1049583 / frame-threads=5 / numa-pools=4 / wpp / no-pmode / no-pme / no-psnr / no-ssim / log-level=3 / input-csp=1 / input-res=1920x800 / interlace=0 / total-frames=0 / level-idc=51 / high-tier=1 / uhd-bd=0 / ref=5 / allow-non-conformance / no-repeat-headers / annexb / no-aud / no-hrd / info / hash=0 / no-temporal-layers / open-gop / min-keyint=24 / keyint=240 / gop-lookahead=0 / bframes=8 / b-adapt=2 / b-pyramid / bframe-bias=0 / rc-lookahead=40 / lookahead-slices=5 / scenecut=40 / radl=0 / no-intra-refresh / ctu=64 / min-cu-size=8 / no-rect / no-amp / max-tu-size=32 / tu-inter-depth=1 / tu-intra-depth=1 / limit-tu=0 / rdoq-level=0 / dynamic-rd=0.00 / no-ssim-rd / signhide / no-tskip / nr-intra=0 / nr-inter=0 / no-constrained-intra / strong-intra-smoothing / max-merge=2 / limit-refs=3 / no-limit-modes / me=3 / subme=7 / merange=57 / temporal-mvp / weightp / no-weightb / no-analyze-src-pics / deblock=-3:-3 / no-sao / no-sao-non-deblock / rd=3 / no-early-skip / rskip / no-fast-intra / no-tskip-fast / no-cu-lossless / no-b-intra / no-splitrd-skip / rdpenalty=0 / psy-rd=2.00 / psy-rdoq=0.00 / no-rd-refine / no-lossless / cbqpoffs=0 / crqpoffs=0 / rc=crf / crf=18.0 / qcomp=0.60 / qpstep=4 / stats-write=0 / stats-read=0 / vbv-maxrate=160000 / vbv-bufsize=160000 / vbv-init=0.9 / crf-max=0.0 / crf-min=0.0 / ipratio=1.40 / pbratio=1.30 / aq-mode=1 / aq-strength=1.00 / cutree / zone-count=0 / no-strict-cbr / qg-size=32 / no-rc-grain / qpmax=69 / qpmin=0 / no-const-vbv / sar=1 / overscan=0 / videoformat=5 / range=0 / colorprim=1 / transfer=1 / colormatrix=1 / chromaloc=0 / display-window=0 / max-cll=0,0 / min-luma=0 / max-luma=1023 / log2-max-poc-lsb=8 / vui-timing-info / vui-hrd-info / slices=1 / no-opt-qp-pps / no-opt-ref-list-length-pps / no-multi-pass-opt-rps / scenecut-bias=0.05 / no-opt-cu-delta-qp / no-aq-motion / no-hdr / no-hdr-opt / no-dhdr10-opt / no-idr-recovery-sei / analysis-reuse-level=5 / scale-factor=0 / refine-intra=0 / refine-inter=0 / refine-mv=0 / no-limit-sao / ctu-info=0 / no-lowpass-dct / refine-mv-type=0 / copy-pic=1 / max-ausize-factor=1.0 / no-dynamic-refine / no-single-sei
Language                                 : English
Default                                  : Yes
Forced                                   : No
Color range                              : Limited
Color primaries                          : BT.709
Transfer characteristics                 : BT.709
Matrix coefficients                      : BT.709

Audio #1
ID                                       : 2
Format                                   : AC-3
Format/Info                              : Audio Coding 3
Commercial name                          : Dolby Digital
Codec ID                                 : A_AC3
Duration                                 : 1 h 42 min
Bit rate mode                            : Constant
Bit rate                                 : 192 kb/s
Channel(s)                               : 2 channels
Channel layout                           : L R
Sampling rate                            : 48.0 kHz
Frame rate                               : 31.250 FPS (1536 SPF)
Bit depth                                : 16 bits
Compression mode                         : Lossy
Stream size                              : 141 MiB (5%)
Title                                    : / 2.0 Ch / 192 kbps / БЗ / NLO
Language                                 : Ukrainian
Service kind                             : Complete Main
Default                                  : Yes
Forced                                   : Yes

Audio #2
ID                                       : 3
Format                                   : AC-3
Format/Info                              : Audio Coding 3
Commercial name                          : Dolby Digital
Codec ID                                 : A_AC3
Duration                                 : 1 h 42 min
Bit rate mode                            : Constant
Bit rate                                 : 384 kb/s
Channel(s)                               : 6 channels
Channel layout                           : L R C LFE Ls Rs
Sampling rate                            : 48.0 kHz
Frame rate                               : 31.250 FPS (1536 SPF)
Bit depth                                : 16 bits
Compression mode                         : Lossy
Stream size                              : 281 MiB (9%)
Title                                    : / 5.1 Ch / 384 kbps / БЗ / M&M
Language                                 : Ukrainian
Service kind                             : Complete Main
Default                                  : No
Forced                                   : No

Audio #3
ID                                       : 4
Format                                   :
Format/Info                              : Digital Theater Systems
Codec ID                                 : A_DTS
Duration                                 : 1 h 42 min
Bit rate mode                            : Constant
Bit rate                                 : 1 509 kb/s
Channel(s)                               : 6 channels
Channel layout                           : C L R Ls Rs LFE
Sampling rate                            : 48.0 kHz
Frame rate                               : 93.750 FPS (512 SPF)
Bit depth                                : 24 bits
Compression mode                         : Lossy
Stream size                              : 1.08 GiB (37%)
Title                                    : / 5.1 Ch / 1509 kbps / Original
Language                                 : English
Default                                  : No
Forced                                   : No

Text #1
ID                                       : 5
Format                                   : UTF-8
Codec ID                                 : S_TEXT/UTF8
Codec ID/Info                            : UTF-8 Plain Text
Duration                                 : 1 h 37 min
Bit rate                                 : 54 b/s
Count of elements                        : 736
Stream size                              : 38.6 KiB (0%)
Title                                    : Full
Language                                 : Ukrainian
Default                                  : Yes
Forced                                   : No

Text #2
ID                                       : 6
Format                                   : UTF-8
Codec ID                                 : S_TEXT/UTF8
Codec ID/Info                            : UTF-8 Plain Text
Duration                                 : 1 h 32 min
Bit rate                                 : 38 b/s
Count of elements                        : 809
Stream size                              : 26.4 KiB (0%)
Title                                    : Full
Language                                 : English
Default                                  : No
Forced                                   : No

Text #3
ID                                       : 7
Format                                   : UTF-8
Codec ID                                 : S_TEXT/UTF8
Codec ID/Info                            : UTF-8 Plain Text
Duration                                 : 1 h 34 min
Bit rate                                 : 41 b/s
Count of elements                        : 1022
Stream size                              : 28.9 KiB (0%)
Title                                    : SDH
Language                                 : English
Default                                  : No
Forced                                   : No

Text #4
ID                                       : 8
Format                                   : UTF-8
Codec ID                                 : S_TEXT/UTF8
Codec ID/Info                            : UTF-8 Plain Text
Duration                                 : 1 h 36 min
Bit rate                                 : 49 b/s
Count of elements                        : 1032
Stream size                              : 34.8 KiB (0%)
Title                                    : SDH-Colored
Language                                 : English
Default                                  : No
Forced                                   : No

Menu
00:00:00.000                             : :00:00:00.000
00:07:39.000                             : :00:07:39.000
00:11:59.218                             : :00:11:59.218
00:17:59.578                             : :00:17:59.578
00:23:46.884                             : :00:23:46.884
00:30:32.247                             : :00:30:32.247
00:35:44.893                             : :00:35:44.893
00:43:48.251                             : :00:43:48.251
00:47:34.060                             : :00:47:34.060
00:54:06.118                             : :00:54:06.118
01:01:36.526                             : :01:01:36.526
01:09:12.814                             : :01:09:12.815
01:14:06.067                             : :01:14:06.067
01:22:37.327                             : :01:22:37.327
01:27:53.393                             : :01:27:53.393
01:35:58.878                             : :01:35:58.878
Світлини




Джерело: &
Особиста оцінка: 7 - моїй подрузі не сподобалося


 Трекер:    Зареєстрований   

Завантажити / скачати фільм українською



відео для новачків



 Зареєстрований:   2019-09-13 21:59
 Розмір:   2.94 GB 
 Оцінка фільму:   10/10 (Голосів: 4)
   
Інші релізи
   Астрал / Insidious (2010) AVC 2xUkr/Eng | Sub Ukr/Eng staf777  3 / 0   2.27 GB   2018-12-09 23:37 
   Астрал / Insidious (2010) 1080p 2xUkr/Eng kvvdvd  2 / 0   10.07 GB   2016-10-14 12:00 
   Астрал / Insidious (2010) 720p 2xUkr/Eng | Sub Ukr Dim-ON  2 / 0   3.82 GB   2015-11-29 23:18 
   Астрал / Insidious (2010) patriot2305  5 / 0   1.45 GB   2015-11-11 10:58 
   Астрал / Insidious (2010) AVC Anonymous  2 / 0   2.41 GB   2011-09-05 19:59 
   Астрал / Insidious (2010) --Rom--  0 / 0   1.45 GB   2011-06-28 17:36 
   Астрал / Insidious (2010) Ukr/Eng TRO[9]N  0 / 0   2 GB   2011-06-28 17:35 
Ваш часовий пояс: GMT + 2 Години

Нова тема   Відповісти