Людина-Павук: Далеко від дому / Spider-Man: Far From Home (2019) 1080p Ukr/Eng | Sub Ukr/Eng

Нові коментарі

Нова тема   Відповісти
Автор Повідомлення
Anonymous 







2019-09-13 15:13  
Людина-Павук: Далеко від дому / Spider-Man: Far From Home (2019) 1080p Ukr/Eng | Sub Ukr/Eng

Людина-Павук: Далеко від дому / Spider-Man: Far From Home (2019) 1080p Ukr/Eng | Sub Ukr/Eng


Жанр: бойовик, пригодницький, фантастика
Країна: США



Кінокомпанія: Sony Pictures, Columbia Pictures, Marvel Studios
Режисер: Джон Воттс
Актори: Том Холланд (II), Зенден Колеман, Семюел Л. Джексон, Джейк Джилленхол, Джон Фавро, Джейкоб Баталон, Кобі Смолдерс, Маріса Томей, Мартін Старр, Нуман Аджар, Енгаурі Райс, Тоні Револорі, Дж.К. Сіммонс, Ремі Хай, Дж.Б. Смув, Хорхе Лендеборг мл.

Сюжет:
"Доброзичливий сусід" Людина-Павук, як і належить, став героєм Нью-Йорка. Він допомагає місцевій поліції ловити злочинців, паралельно кидаючи різні колючі жарті. Але й героям потрібно відпочивати – тому, незважаючи на дзвінки самого директора "Щ.И.Т.а" Ніка Ф'юрі, Пітер Паркер разом зі своїми друзями Недом, Ем Джей й іншими відправився на канікули до Європи. Старовинні красиві міста, умиротворення та романтична обстановка, щоб прогулятися набережною із красивою дівчиною – ось що йому зараз потрібно. Але Нік Ф'юрі його все-таки знайшов і напряг роботою... Відмовляти йому – тільки собі дорожче. Людина-Павук повинен розібратися з містичною появою створінь-елементаліїв, які загрожують мирним жителям. Разом із Містеріо Пітер Паркер повинен впоратися з цим завданням. Відпочине коли-небудь іншим разом...


Тривалість: 02:09:24
Якість: 1080p
Відео:
кодек:
розмір кадру: 1920x804
бітрейт: ~11900 кб/с

Аудіо # 1:
мова: українська
переклад: професійний дубльований
кодек: 5.1
бітрейт: 640 кб/с

Аудіо # 2:
мова: англійська
переклад: оригінал
кодек: 5.1
бітрейт: 1536 кб/с

Субтитри: (Forced, Full)
мова: українська
тип: програмні (м'які)
формат: *.srt

Субтитри: (Full, SDH)
мова: англійська
тип: програмні (м'які)
формат: *.srt
Info
Код:
General
Complete name                            : Spider-Man Far From Home (2019) 1080p [UKR_ENG] [Video_Hurtom].
Format                                   :
Format version                           : Version 4
File size                                : 12.9 GiB
Duration                                 : 2 h 9 min
Overall bit rate                         : 14.3 Mb/s
Movie name                               : Spider-Man Far From Home (2019) 1080p [ukr,eng] [Video_Hurtom]
Encoded date                             : UTC 2019-10-25 18:42:53
Writing application                      : v30.1.0 ('Forever And More') 64-bit
Writing library                          : libebml v1.3.6 + v1.4.9
Cover                                    : Yes
Attachments                              : cover.jpg

Video
ID                                       : 1
Format                                   : AVC
Format/Info                              : Advanced Video Codec
Format profile                           : [email protected]
Format settings                          : CABAC / 5 Ref Frames
Format settings, CABAC                   : Yes
Format settings, RefFrames               : 5 frames
Codec ID                                 : V_MPEG4/ISO/AVC
Duration                                 : 2 h 9 min
Bit rate                                 : 12.1 Mb/s
Width                                    : 1 920 pixels
Height                                   : 804 pixels
Display aspect ratio                     : 2.40:1
Frame rate mode                          : Constant
Frame rate                               : 23.976 (24000/1001) FPS
Color space                              : YUV
Chroma subsampling                       : 4:2:0
Bit depth                                : 8 bits
Scan type                                : Progressive
Bits/(Pixel*Frame)                       : 0.328
Stream size                              : 11.0 GiB (85%)
Writing library                          : core 142 r2431+42 c69a006 tMod [[email protected]:2:0 X86_64]
Encoding settings                        : cabac=1 / ref=5 / deblock=1:-3:-3 / analyse=0x3:0x133 / me=umh / subme=10 / psy=1 / fade_compensate=0.00 / psy_rd=1.00:0.00 / mixed_ref=1 / me_range=32 / chroma_me=1 / trellis=2 / 8x8dct=1 / cqm=0 / deadzone=21,11 / fast_pskip=0 / chroma_qp_offset=-2 / threads=12 / lookahead_threads=2 / sliced_threads=0 / nr=0 / decimate=0 / interlaced=0 / bluray_compat=0 / constrained_intra=0 / fgo=0 / bframes=9 / b_pyramid=2 / b_adapt=2 / b_bias=0 / direct=3 / weightb=1 / open_gop=0 / weightp=2 / keyint=250 / keyint_min=23 / scenecut=40 / intra_refresh=0 / rc_lookahead=60 / rc=crf / mbtree=0 / crf=15.4000 / qcomp=0.63 / qpmin=0:0:0 / qpmax=69:69:69 / qpstep=4 / vbv_maxrate=50000 / vbv_bufsize=62500 / crf_max=0.0 / nal_hrd=none / filler=0 / ip_ratio=1.35 / pb_ratio=1.25 / aq=3:0.87 / aq-sensitivity=10.00 / aq-factor=1.00:1.00:1.00 / aq2=0 / aq3=0 / zones=3170,3439,crf=14.5
Language                                 : English
Default                                  : Yes
Forced                                   : No

Audio #1
ID                                       : 2
Format                                   : AC-3
Format/Info                              : Audio Coding 3
Commercial name                          : Dolby Digital
Codec ID                                 : A_AC3
Duration                                 : 2 h 9 min
Bit rate mode                            : Constant
Bit rate                                 : 640 kb/s
Channel(s)                               : 6 channels
Channel layout                           : L R C LFE Ls Rs
Sampling rate                            : 48.0 kHz
Frame rate                               : 31.250 FPS (1536 SPF)
Bit depth                                : 16 bits
Compression mode                         : Lossy
Stream size                              : 592 MiB (4%)
Title                                    : , 3/2 (L,C,R,l,r) + LFE ch, ~640 kbps
Language                                 : Ukrainian
Service kind                             : Complete Main
Default                                  : Yes
Forced                                   : No

Audio #2
ID                                       : 3
Format                                   :
Format/Info                              : Digital Theater Systems
Codec ID                                 : A_DTS
Duration                                 : 2 h 9 min
Bit rate mode                            : Constant
Bit rate                                 : 1 509 kb/s
Channel(s)                               : 6 channels
Channel layout                           : C L R Ls Rs LFE
Sampling rate                            : 48.0 kHz
Frame rate                               : 93.750 FPS (512 SPF)
Bit depth                                : 16 bits
Compression mode                         : Lossy
Stream size                              : 1.36 GiB (11%)
Title                                    : , 3/2 (L,C,R,l,r) + LFE ch ch, ~1536 kbps
Language                                 : English
Default                                  : No
Forced                                   : No

Text #1
ID                                       : 4
Format                                   : UTF-8
Codec ID                                 : S_TEXT/UTF8
Codec ID/Info                            : UTF-8 Plain Text
Duration                                 : 2 h 6 min
Bit rate                                 : 1 b/s
Count of elements                        : 24
Stream size                              : 1 007 Bytes (0%)
Title                                    : Forced
Language                                 : Ukrainian
Default                                  : Yes
Forced                                   : No

Text #2
ID                                       : 5
Format                                   : UTF-8
Codec ID                                 : S_TEXT/UTF8
Codec ID/Info                            : UTF-8 Plain Text
Duration                                 : 2 h 8 min
Bit rate                                 : 94 b/s
Count of elements                        : 1759
Stream size                              : 89.3 KiB (0%)
Title                                    : Full
Language                                 : Ukrainian
Default                                  : No
Forced                                   : No

Text #3
ID                                       : 6
Format                                   : UTF-8
Codec ID                                 : S_TEXT/UTF8
Codec ID/Info                            : UTF-8 Plain Text
Duration                                 : 2 h 7 min
Bit rate                                 : 65 b/s
Count of elements                        : 1725
Stream size                              : 61.0 KiB (0%)
Title                                    : Full
Language                                 : English
Default                                  : No
Forced                                   : No

Text #4
ID                                       : 7
Format                                   : UTF-8
Codec ID                                 : S_TEXT/UTF8
Codec ID/Info                            : UTF-8 Plain Text
Duration                                 : 2 h 8 min
Bit rate                                 : 69 b/s
Count of elements                        : 1929
Stream size                              : 65.6 KiB (0%)
Title                                    : SDH
Language                                 : English
Default                                  : No
Forced                                   : No

Menu
00:00:00.000                             : :Chapter 01
00:09:35.033                             : :Chapter 02
00:16:06.716                             : :Chapter 03
00:25:18.475                             : :Chapter 04
00:35:26.499                             : :Chapter 05
00:41:57.014                             : :Chapter 06
00:49:50.029                             : :Chapter 07
00:57:09.509                             : :Chapter 08
01:04:50.637                             : :Chapter 09
01:15:57.219                             : :Chapter 10
01:22:49.089                             : :Chapter 11
01:29:25.193                             : :Chapter 12
01:36:43.256                             : :Chapter 13
01:44:47.364                             : :Chapter 14
01:52:17.397                             : :Chapter 15
01:57:45.433                             : :Chapter 16
Скріншоти




Джерело:
Особиста оцінка: 8 - мені сподобалося


 Трекер:    Зареєстрований   

Завантажити / скачати фільм українською



відео для новачків



 Зареєстрований:   2019-10-25 22:18
 Розмір:   12.91 GB 
 Оцінка фільму:   9.4/10 (Голосів: 143)
   
tatopylys 
Свій


З нами з: 12.05.16
Востаннє: 17.01.20
Повідомлень: 58

2019-09-13 21:40  
Ну сцени після титрів обіцяють щось нове і цікаве в цьому кіновсесвіті.спойлерити не буду але здається що пацанопавук відкриває новий етап.
BASTI 
Новенький


З нами з: 07.02.12
Востаннє: 17.01.20
Повідомлень: 3

2019-09-13 23:01  
tatopylys
не відкриє
Людина-павук офіційно покинув киновсесвіт Marvel. Головний виконавчий директор Sony Pictures Тоні Вінчікерра заявив про те, що Людина-павук все-таки покине кіновсесвіт Marvel. За його словами, для супергероя "на даний момент двері закриті", повідомляє Variety. Разом з тим, Вінчікерра додав, що "життя довге", ймовірно, натякаючи на те, що у віддаленому майбутньому возз'єднання супергероїв все-таки можливе. Він також додав, що між Marvel і Sony "немає ворожнечі", незважаючи на те, що їм так і не вдалося прийти до фінансової згоди.

kiboal 
Свій


З нами з: 25.12.14
Востаннє: 17.01.20
Повідомлень: 129

2019-09-14 11:10  
Як на мене слабенький фільм , я чекай зловісну 6шістку, хібащо твіст фінальний, типу цікавий.А сцени після титрів, я не зрозумів бо пропустив цю серію.Короче один разок глянуть можно.

Ясно чого у всіх так бомбить ))

tatopylys 
Свій


З нами з: 12.05.16
Востаннє: 17.01.20
Повідомлень: 58

2019-09-14 11:41  
BASTI
Отакої.шкода.надіявся що буде місиво з тим усім.Карти павучка розкрито тож шкода що так.можливо у них там в корпораціях бабло переможе зло і все ж таки буде продовження[/b]

VINRARUS 
Поважний учасник


З нами з: 16.11.11
Востаннє: 15.01.20
Повідомлень: 207

2019-09-14 13:41  
80% фільму любовні фантазії прищавих підлітків, 15% треш, 5% угар.
Incredible33 
Новенький


З нами з: 14.12.14
Востаннє: 16.01.20
Повідомлень: 4

2019-09-14 21:19  
Боже, яке лайно. Просто найтупiше i найнесмiшнiше "кiно" в свiтi.
olegwan 
Свій


З нами з: 19.03.09
Востаннє: 17.01.20
Повідомлень: 95

2019-09-16 08:53  
Норм кіно. Меньше екшену та спецефектів в порівнянні з іншими частинами. Тут зробили більший акцент саме на особистостях та емоціях. Можливо занадто молодіжний вийшов. Та павук уже давно перейшов у жанр молодіжного екшн кіно.
SHEVA2018 
Новенький


З нами з: 24.09.18
Востаннє: 16.01.20
Повідомлень: 22

2019-09-16 09:02  
Крутий літній блокбастер!!! Хотілося щоби SONY та MARVEL домовились щоб павук Тома Холланда був і там і там!! Дякую за реліз)))
olimpian1 
Поважний учасник


З нами з: 19.10.13
Востаннє: 17.01.20
Повідомлень: 210

2019-09-16 14:58  
Дякую, заціним!
Anonymous 







2019-09-17 20:09  
Торент файл оновлено. Заміна відео на 1080p
-VJ- 
VIP


З нами з: 01.11.09
Востаннє: 17.01.20
Повідомлень: 733

2019-09-18 13:10  
Ех, прощавай, павучку, більше не побачити тебе з Месниками.
Alexand3r 
Новенький


З нами з: 02.05.19
Востаннє: 17.01.20
Повідомлень: 1

2019-09-19 16:05  
Хороше продовження! Джейк Джилленхол красава!
loz_ko 
Частий відвідувач


З нами з: 29.07.08
Востаннє: 16.01.20
Повідомлень: 36

2019-09-20 17:58  
Почав дивитися і вперше в житті заснув на фільмі, десь через п'ятнадцять хвилин. Чи то я старий став, чи то гіршої нудоти ще не траплялося.
Anonymous 







2019-09-20 20:32  
Торент файл оновлено. Заміна відео на 1080p

0mage0 
VIP


З нами з: 06.10.15
Востаннє: 17.01.20
Повідомлень: 615

2019-09-21 07:07  
Мені фільм сподобався.
Окрім тої сцени, де павук наказав ІДІ атакувати пацана в автобусі (а може весь автобус?) а потім не скасував наказ, а знищував дрон. Цікаво, скільки часу в Містеріо зайняла постановка ілюзії для Павука (після того, як він розповів про підставу з проєкторами нібито Ф'юрі та Робін. Цікаво, що актор, який грає Ф'юрі насправді майже весь фільм грав то якогось іншопланетянина, то ілюзію. А, ще вчителі якісь занадто тупі. Екскурсія з дітьми по інших країнах і їм щодня вигадують новий план з новими країнами, а їм взагалі не здається це підозрілим.
Щодо перекладу
trip advice переклали як лайфхак. Тобто я не здивувався б якби lifehack залишили без перекладу, типу багато хто так говорить, але перекладати один вислів англійською іншим висловом теж англійською це дуже погано. Цікаво, перекладачі в курсі, що перекладають українською, а не англійську перекладають англійською?
Московські
блін
сорян
зізнатися замість освідчитися
І в кінці маємо "якого х.." Певно, українською мало бути "якого д...", тобто якого дідька чи "якого б...", тобто якого біса.

st_Niko 
Новенький


З нами з: 07.05.14
Востаннє: 14.01.20
Повідомлень: 2

2019-09-22 21:50  
найтупіший фільм серії, хоча явно оріентований на підлітків 10-12 років, тож і жалітися не потрібно)
взагалі павук показаній надто недалаким як на генія

alonzo 
VIP


З нами з: 30.08.15
Востаннє: 16.01.20
Повідомлень: 340

2019-09-23 16:47  
VINRARUS написано:
любовні фантазії прищавих підлітків,

хтось таким не був ?, чи з 15 різко став 25-30 літнім , чи це таке самоствердження !

MaRsieN 
Новенький


З нами з: 07.12.12
Востаннє: 14.01.20
Повідомлень: 20

2019-09-23 19:24  
alonzo
Щойно переглянув старого павука 2004 року. Набагато кращий і змістовнішній фільм-драма ніж ось це. Дивує те, що досить гарний фильм має меньший рейтинг, а ніж досить прохідне заштамповане кінцо для підлітків.

alonzo 
VIP


З нами з: 30.08.15
Востаннє: 16.01.20
Повідомлень: 340

2019-09-23 20:28  
MaRsieN написано:
старого павука 2004 року

згоден цей найкращий!
MaRsieN написано:
Дивує те, що досить гарний фильм має меньший рейтинг, а ніж досить прохідне заштамповане кінцо для підлітків.

сучасний темп: - смартфони , комікони і тому подібне - диктують молоді що тепер популярне .

Додано через 3 хвилини 5 секунд:

я так гадаю , свого часу павук 4 року був наросхват - касета не залежувалась на поличці відеосалону !

Додано через 2 хвилини 8 секунд:

alonzo написано:
згоден цей найкращий!

хоча перша частина мені всеж таки краща (2002) !

Додано через 1 хвилину 52 секунди:

alonzo написано:
свого часу павук 4 року був наросхват - касета не залежувалась на поличці відеосалону !

разом з "Навколо світу за 80 днів" 2004

Додано через 1 хвилину 51 секунду:

були в спеціальних прокатних боксах !(такі пластикові коробочки як книжка )

Anonymous 







2019-09-28 02:06  
Торент файл оновлено. Додав укр. субтитри (Full) , а також аудіо 5.1 | 384 (iTunes)

Dominatrix 
Новенький


З нами з: 15.05.16
Востаннє: 16.01.20
Повідомлень: 2

2019-09-28 18:25  
BASTI
Відкриє. Вони домовились, дійшли фінансової згоди.

bogdanich 
VIP


З нами з: 24.10.13
Востаннє: 13.01.20
Повідомлень: 584

2019-09-29 22:44  
Передбачувано та якось по-дитячому. До першого фільму цій стрічці дуже далеко.
5/10.
Дякую!

StepKryha 
Поважний учасник


З нами з: 21.06.17
Востаннє: 17.01.20
Повідомлень: 175

2019-10-17 11:44  
Хороший фільм.
Набагато краще за 1 частину від Марвел. Сподобався. :)

8.5 / 10. Рекомендую.

Anonymous 







2019-10-25 22:19  
Торент файл оновлено. Додав укр. субтитри (Forced) , а також аудіо 5.1 | 640 (Ліцензія)

Ваш часовий пояс: GMT + 2 Години

Нова тема   Відповісти