Людина-Павук: Далеко від дому / Spider-Man: Far From Home (2019) 1080p Ukr/Eng | Sub Eng

Нові коментарі

Нова тема   Відповісти
Автор Повідомлення
Anonymous 







2019-09-13 16:13  
Людина-Павук: Далеко від дому / Spider-Man: Far From Home (2019) 1080p Ukr/Eng | Sub Eng

Людина-Павук: Далеко від дому / Spider-Man: Far From Home (2019) 1080p Ukr/Eng | Sub Eng


Жанр: бойовик, пригоди, фантастика
Країна: США





Кінокомпанія: Sony Pictures, Columbia Pictures, Marvel Studios
Режисер: Джон Воттс
Актори: Том Холланд (II), Зенден Колеман, Семюел Л. Джексон, Джейк Джилленхол, Джон Фавро, Джейкоб Баталон, Кобі Смолдерс, Маріса Томей, Мартін Старр, Нуман Аджар, Енгаурі Райс, Тоні Револорі, Дж.К. Сіммонс, Ремі Хай, Дж.Б. Смув, Хорхе Лендеборг мл.

Сюжет:
"Доброзичливий сусід" Людина-Павук, як і належить, став героєм Нью-Йорка. Він допомагає місцевій поліції ловити злочинців, паралельно кидаючи різні колючі жарті. Але й героям потрібно відпочивати – тому, незважаючи на дзвінки самого директора "Щ.И.Т.а" Ніка Ф'юрі, Пітер Паркер разом зі своїми друзями Недом, Ем Джей й іншими відправився на канікули до Європи. Старовинні красиві міста, умиротворення та романтична обстановка, щоб прогулятися набережною із красивою дівчиною – ось що йому зараз потрібно. Але Нік Ф'юрі його все-таки знайшов і напряг роботою... Відмовляти йому – тільки собі дорожче. Людина-Павук повинен розібратися з містичною появою створінь-елементаліїв, які загрожують мирним жителям. Разом із Містеріо Пітер Паркер повинен впоратися з цим завданням. Відпочине коли-небудь іншим разом...


Тривалість: 02:08:43
Якість: 1080p
Відео:
кодек:
розмір кадру: 1920x804
бітрейт: ~4500 кб/с

Аудіо # 1:
мова: українська
переклад: професійний дубльований | Line
кодек: 2.0
бітрейт: 192 кб/с

Аудіо # 2:
мова: англійська
переклад: оригінал
кодек: 2.0
бітрейт: 256 кб/с

Субтитри:
мова: англійська
тип: програмні (м'які)
формат: *.srt
Info
Код:
General
Complete name                            : Spider-Man. Far From Home (2019) 1080p [UKR_ENG] [ViDeO_Hurtom].
Format                                   :
Format version                           : Version 4
File size                                : 4.45 GiB
Duration                                 : 2 h 8 min
Overall bit rate                         : 4 948 kb/s
Movie name                               : Spider-Man. Far From Home (2019) 1080p [UKR_ENG] [ViDeO_Hurtom]
Encoded date                             : UTC 2019-09-13 12:57:36
Writing application                      : v30.1.0 ('Forever And More') 64-bit
Writing library                          : libebml v1.3.6 + v1.4.9
Cover                                    : Yes
Attachments                              : Cover.jpg

Video
ID                                       : 1
Format                                   : AVC
Format/Info                              : Advanced Video Codec
Format profile                           : [email protected]
Format settings                          : CABAC / 4 Ref Frames
Format settings, CABAC                   : Yes
Format settings, RefFrames               : 4 frames
Codec ID                                 : V_MPEG4/ISO/AVC
Duration                                 : 2 h 8 min
Bit rate                                 : 4 500 kb/s
Width                                    : 1 920 pixels
Height                                   : 804 pixels
Display aspect ratio                     : 2.40:1
Frame rate mode                          : Constant
Frame rate                               : 30.000 FPS
Color space                              : YUV
Chroma subsampling                       : 4:2:0
Bit depth                                : 8 bits
Scan type                                : Progressive
Bits/(Pixel*Frame)                       : 0.097
Stream size                              : 4.04 GiB (91%)
Writing library                          : core 148 r2748 97eaef2
Encoding settings                        : cabac=1 / ref=4 / deblock=1:0:0 / analyse=0x3:0x113 / me=umh / subme=9 / psy=1 / psy_rd=1.00:0.00 / mixed_ref=1 / me_range=16 / chroma_me=1 / trellis=2 / 8x8dct=1 / cqm=0 / deadzone=21,11 / fast_pskip=1 / chroma_qp_offset=-2 / threads=72 / lookahead_threads=6 / sliced_threads=0 / nr=0 / decimate=1 / interlaced=0 / bluray_compat=0 / constrained_intra=0 / bframes=3 / b_pyramid=2 / b_adapt=2 / b_bias=0 / direct=3 / weightb=1 / open_gop=0 / weightp=2 / keyint=250 / keyint_min=25 / scenecut=40 / intra_refresh=0 / rc_lookahead=50 / rc=abr / mbtree=1 / bitrate=4500 / ratetol=1.0 / qcomp=0.60 / qpmin=0 / qpmax=69 / qpstep=4 / ip_ratio=1.40 / aq=1:1.00
Default                                  : Yes
Forced                                   : No

Audio #1
ID                                       : 2
Format                                   : AC-3
Format/Info                              : Audio Coding 3
Commercial name                          : Dolby Digital
Codec ID                                 : A_AC3
Duration                                 : 2 h 8 min
Bit rate mode                            : Constant
Bit rate                                 : 192 kb/s
Channel(s)                               : 2 channels
Channel layout                           : L R
Sampling rate                            : 48.0 kHz
Frame rate                               : 31.250 FPS (1536 SPF)
Bit depth                                : 16 bits
Compression mode                         : Lossy
Delay relative to video                  : -43 ms
Stream size                              : 177 MiB (4%)
Title                                    : Dub [Line], 2.0 192 Kbps
Language                                 : Ukrainian
Service kind                             : Complete Main
Default                                  : Yes
Forced                                   : No

Audio #2
ID                                       : 3
Format                                   : LC
Format/Info                              : Advanced Audio Codec Low Complexity
Codec ID                                 : A_AAC-2
Duration                                 : 2 h 8 min
Bit rate                                 : 256 kb/s
Channel(s)                               : 2 channels
Channel layout                           : L R
Sampling rate                            : 48.0 kHz
Frame rate                               : 46.875 FPS (1024 SPF)
Compression mode                         : Lossy
Delay relative to video                  : -43 ms
Stream size                              : 236 MiB (5%)
Title                                    : Original, 2.0 256 kbps
Language                                 : English
Default                                  : No
Forced                                   : No

Text
ID                                       : 4
Format                                   : UTF-8
Codec ID                                 : S_TEXT/UTF8
Codec ID/Info                            : UTF-8 Plain Text
Duration                                 : 2 h 7 min
Bit rate                                 : 61 b/s
Count of elements                        : 2072
Stream size                              : 57.1 KiB (0%)
Title                                    : Full
Default                                  : Yes
Forced                                   : No
Скріншоти




Джерело:
Особиста оцінка: 8 - мені сподобалося


 Трекер:    Зареєстрований   

Завантажити / скачати фільм українською



відео для новачків



 Зареєстрований:   2019-09-13 16:13
 Розмір:   4.45 GB 
 Оцінка фільму:   9.6/10 (Голосів: 65)
   
Strider477 
Частий відвідувач


З нами з: 29.10.11
Востаннє: 13.09.19
Повідомлень: 46

2019-09-13 17:47  
Коли норм звук буде?
Anonymous 







2019-09-13 18:08  
tatopylys 
Свій


З нами з: 12.05.16
Востаннє: 15.09.19
Повідомлень: 52

2019-09-13 22:40  
Ну сцени після титрів обіцяють щось нове і цікаве в цьому кіновсесвіті.спойлерити не буду але здається що пацанопавук відкриває новий етап.
BASTI 
Новенький


З нами з: 07.02.12
Востаннє: 15.09.19
Повідомлень: 3

2019-09-14 00:01  
tatopylys
не відкриє
Людина-павук офіційно покинув киновсесвіт Marvel. Головний виконавчий директор Sony Pictures Тоні Вінчікерра заявив про те, що Людина-павук все-таки покине кіновсесвіт Marvel. За його словами, для супергероя "на даний момент двері закриті", повідомляє Variety. Разом з тим, Вінчікерра додав, що "життя довге", ймовірно, натякаючи на те, що у віддаленому майбутньому возз'єднання супергероїв все-таки можливе. Він також додав, що між Marvel і Sony "немає ворожнечі", незважаючи на те, що їм так і не вдалося прийти до фінансової згоди.

kiboal 
Свій


З нами з: 25.12.14
Востаннє: 15.09.19
Повідомлень: 120

2019-09-14 12:10  
Як на мене слабенький фільм , я чекай зловісну 6шістку, хібащо твіст фінальний, типу цікавий.А сцени після титрів, я не зрозумів бо пропустив цю серію.Короче один разок глянуть можно.

Ясно чого у всіх так бомбить ))

tatopylys 
Свій


З нами з: 12.05.16
Востаннє: 15.09.19
Повідомлень: 52

2019-09-14 12:41  
BASTI
Отакої.шкода.надіявся що буде місиво з тим усім.Карти павучка розкрито тож шкода що так.можливо у них там в корпораціях бабло переможе зло і все ж таки буде продовження[/b]

VINRARUS 
Поважний учасник


З нами з: 16.11.11
Востаннє: 15.09.19
Повідомлень: 207

2019-09-14 14:41  
80% фільму любовні фантазії прищавих підлітків, 15% треш, 5% угар.
Vodo4kin 
Новенький


З нами з: 10.06.15
Востаннє: 15.09.19
Повідомлень: 23

2019-09-14 21:44  
Коли буде якісний дубляж. а не Line ?
Incredible33 
Новенький


З нами з: 14.12.14
Востаннє: 14.09.19
Повідомлень: 3

2019-09-14 22:19  
Боже, яке лайно. Просто найтупiше i найнесмiшнiше "кiно" в свiтi.
Anonymous 







2019-09-15 15:38  
Vodo4kin написано:
Коли буде якісний дубляж. а не Line ?

Strider477 написано:
Коли норм звук буде?

antik_2008 написано:
https://toloka.to/t103593

Vodo4kin 
Новенький


З нами з: 10.06.15
Востаннє: 15.09.19
Повідомлень: 23

2019-09-15 17:02  
Anonymous
дякую

Ваш часовий пояс: GMT + 2 Години

Нова тема   Відповісти