Фантазія 2000 / Fantasia 2000 (1999) 720p Ukr/Eng | Sub Eng

Нові коментарі

Нова тема   Відповісти
Автор Повідомлення
Anonymous 







2019-09-13 14:53  
Фантазія 2000 / Fantasia 2000 (1999) 720p Ukr/Eng | Sub Eng



Жанр: анімація, комедія, музичний, сімейний
Країна: США



Кінокомпанія: Disney
Режисер: Ерік Голдберг, Джеймс Алгар, Дон Ган, Гаєтан Бріцці, Гендел Бутой, Френсіс Глебас.
Актори: Джеймс Лівайн, Стів Мартін, Джеймс Ерл Джонс, Бетт Мідлер, Іцхак Перлман

Сюжет:
Через майже 60 років аніматори корпорації «Дісней» винесли на суд глядачів продовження геніального фільму, створивши мальовані етюди на музику Бетховена, Респіги, Гершвіна, Шостаковича, Сен-Санса, Елгара та Стравінського. Також в «Фантазію 2000» увійшов класичний епізод з першої «Фантазії» - «Учень чаклуна».


Тривалість: 01:14:32
Якість:
Відео:
кодек:
розмір кадру: 1280 х 720
бітрейт: 3750 кб/с

Аудіо # 1:
мова: українська
переклад: професійний дубльований | студія LeDoyen
кодек: 2.0 (стерео)
бітрейт: 192 кб/с
про доріжку
Майже весь мультфільм це музичні виступи без слів. Англійська доріжка з 5.1 була перетворена у стерео, а замість розмов англійською зроблено вставки українського дубляжу. В принципі таким чином можна зробити і українську 5.1 доріжку
інформація про озвучення
Ролі дублювали:
Тейлор - Михайло Войчук
Стів Мартін - Валерій Легін
Ісаак Перлман - Олег Лепенець
Бет Мідлер - Ніна Кастроф
Джеймс Джонс - Роман Чорний
Пенн - Юрій Кудрявець
Стоковський - Андрій Мостренко
Джеймс Левайн - Олег Лепенець
Міккі Маус - Юрій Кудрявець
Дональд Дак - Євген Шпірка
Анджела Ленсбері - Ніна Кастроф

Переклад: Надія Бойван
Аудіо # 2:
мова: англійська
переклад: оригінал
кодек: 5.1
бітрейт: 384 кб/с

Субтитри:
мова: англійська
тип: програмні (м'які)
формат: *.srt
Info
Video
ID : 1
Format : AVC
Format/Info : Advanced Video Codec
Format profile : [email protected]
Format settings : CABAC / 9 Ref Frames
Format settings, CABAC : Yes
Format settings, Reference : 9 frames
Codec ID : V_MPEG4/ISO/AVC
Duration : 1 h 14 min
Bit rate : 3 750 kb/s
Width : 1 280 pixels
Height : 720 pixels
Display aspect ratio : 16:9
Frame rate mode : Constant
Frame rate : 23.976 FPS
Color space : YUV
Chroma subsampling : 4:2:0
Bit depth : 8 bits
Scan type : Progressive
Bits/(Pixel*Frame) : 0.170
Stream size : 1.95 GiB (87%)
Writing library : core 107 r1745+311 2317302
Encoding settings : cabac=1 / ref=9 / deblock=1:-3:-3 / analyse=0x3:0x133 / me=umh / subme=10 / psy=1 / fade_compensate=0.00 / psy_rd=1.00:0.00 / mixed_ref=1 / me_range=32 / chroma_me=1 / trellis=2 / 8x8dct=1 / cqm=0 / deadzone=21,11 / fast_pskip=0 / chroma_qp_offset=-2 / threads=18 / sliced_threads=0 / nr=0 / decimate=0 / interlaced=0 / constrained_intra=0 / fgo=0 / bframes=7 / b_pyramid=2 / b_adapt=2 / b_bias=0 / direct=3 / weightb=1 / open_gop=0 / weightp=2 / keyint=250 / keyint_min=23 / scenecut=40 / intra_refresh=0 / rc=2pass / mbtree=0 / bitrate=3750 / ratetol=1.0 / qcomp=0.60 / qpmin=10 / qpmax=51 / qpstep=4 / cplxblur=20.0 / qblur=0.5 / ip_ratio=1.40 / pb_ratio=1.30 / aq=2:0.50
Language : English
Default : Yes
Forced : No

Audio #1
ID : 2
Format : AC-3
Format/Info : Audio Coding 3
Commercial name : Dolby Digital
Codec ID : A_AC3
Duration : 1 h 14 min
Bit rate mode : Constant
Bit rate : 192 kb/s
Channel(s) : 2 channels
Channel layout : L R
Sampling rate : 48.0 kHz
Frame rate : 31.250 FPS (1536 SPF)
Bit depth : 16 bits
Compression mode : Lossy
Stream size : 102 MiB (4%)
Title : DUB - Le Doyen
Language : Ukrainian
Service kind : Complete Main
Default : Yes
Forced : No

Audio #2
ID : 3
Format : AC-3
Format/Info : Audio Coding 3
Commercial name : Dolby Digital
Codec ID : A_AC3
Duration : 1 h 14 min
Bit rate mode : Constant
Bit rate : 384 kb/s
Channel(s) : 6 channels
Channel layout : L R C LFE Ls Rs
Sampling rate : 48.0 kHz
Frame rate : 31.250 FPS (1536 SPF)
Bit depth : 16 bits
Compression mode : Lossy
Stream size : 205 MiB (9%)
Language : English
Service kind : Complete Main
Default : No
Forced : No

Text
ID : 4
Format : UTF-8
Codec ID : S_TEXT/UTF8
Codec ID/Info : UTF-8 Plain Text
Duration : 1 h 14 min
Bit rate : 12 b/s
Count of elements : 162
Stream size : 6.61 KiB (0%)
Language : English
Default : No
Forced : No

Menu
00:00:00.000 : en:Opening/Main Title.
00:01:16.493 : en:"Symphony No. 5" (Ludwig Van Beethoven)
00:04:08.540 : en:Introduction (Steve Martin and Itzhak Perlman)
00:05:36.628 : en:"Pines Of Rome" (Ottorino Respighi)
00:15:50.366 : en:Introduction (Quincy Jones)
00:16:46.005 : en:"Rhapsody In Blue" (George Gershwin)
00:29:18.590 : en:Introduction (Bette Midler)
00:30:34.750 : en:"Piano Concerto No. 2, Allegro, Opus 102" (Dmitri Shostakovich)
00:38:04.115 : en:Introduction (James Earl Jones)
00:38:47.534 : en:"Carnival Of The Animals, Finale" (Camille Saint-Saens)
00:40:41.981 : en:Introduction (Penn & Teller)
00:42:16.534 : en:"The Sorcerer's Apprentice" (Paul Dukas)
00:51:52.609 : en:Introduction (James Levine)
00:52:51.794 : en:"Pomp And Circumstance-Marches 1, 2, 3 and 4" (Sir Edward Elgar)
00:59:08.962 : en:Introduction (Angela Lansbury)
00:59:32.778 : en:"Firebird Suite-1919 Version" (Igor Stravinsky)
01:08:46.122 : en:End Credits
Скріншоти
















Джерело:
Особиста оцінка: 10 - без зайвих вагань рекомендую всім!


Срібний реліз (на рейтинг впливає 50% завантаженого)
 Трекер:    Зареєстрований   

Завантажити / скачати мультфільм українською



відео для новачків



 Зареєстрований:   2019-09-13 14:53
 Розмір:   2.25 GB 
 Оцінка мультфільму:   8.9/10 (Голосів: 8)
   
Інші релізи
   Фантазія 2000 / Fantasia 2000 (1999) 1080p Ukr/Eng | Sub Eng staf777  3 / 0   5.57 GB   2019-09-15 17:16 
   Фантазія 2000 / Fantasia 2000 (1999) AVC Ukr/Eng | Sub Eng Sando7  16 / 0   1.27 GB   2019-09-14 15:13 
Аркадій Дзиґа 
VIP


З нами з: 09.10.14
Востаннє: 19.09.19
Повідомлень: 293

2019-09-18 09:02  
Бездоганне твориво: задум, барви, музика, все...
Ваш часовий пояс: GMT + 2 Години

Нова тема   Відповісти