Анна / Anna (2019) 1080p Ukr/Eng | Sub Eng

Нові коментарі

Нова тема   Відповісти
Автор Повідомлення
Anonymous 







2019-09-13 14:12  
Анна / Anna (2019) 1080p Ukr/Eng | Sub Eng




Альтернативний постер

«Ніколи не роби зброю мішенню»


Жанр: бойовик, трилер
Країна: Франція, США



Кінокомпанія: EuropaCorp, TF1 Films Production, OCS
Режисер: Люк Бессон
Актори: Саша Лусс, Хелен Міррен, Люк Еванс, Кілліан Мерфі, Лєра Абова, Алєксандр Пєтров, Нікіта Павлєнка, Ерік Годон

Сюжет:
Анна Полятова – це неймовірна жінка. Вона зуміла поєднати в собі двох абсолютно різних людей. Для всіх навколо Анна – це молода красива російська модель, яка всіх навколо може з легкістю зачарувати. Але насправді за зовнішністю цієї дівчини ховається небезпечний вбивця. Вона може позбавити життя будь-якого, хто зустрінеться їй на шляху, якщо для цього буде необхідність. Анна бере будь-які навіть найскладніші замовлення, адже ніхто не підозрює, що ця тендітна дівчина може вбивати. Вона найнебезпечніша вбивця в усьому світі..


Тривалість: 01:58:59
Якість: 1080p

Відео:
кодек:
розмір кадру: 1920x800
бітрейт: 12 Mб/с

Аудіо # 1:
мова: українська
переклад: професійний дубльований | студія Pie Post Production
кодек: 2.0
бітрейт: 192 кб/с
Інформація про дубляж
Перекладач: Ольга Галайда
Режисер дубляжу: Лідія Громовенко
Звукорежисер: Денис Подляський
Ролі дублювали: Катерина Брайковська, Андрій Твердак, Ніна Касторф, Андрій Альохін, Борис Георгієвський, Андрій Мостренко, Ольга Греськова та інші.

Фільм дубльовано студією Pie Post Production на замовлення компанії "Ukrainian Film Distribution".
Аудіо # 2:
мова: англійська
переклад: оригінал
кодек: 5.1
бітрейт: 640 кб/с

Субтитри:
мова: англійська
тип: програмні (м'які)
формат: *.srt
Info
Код:
General
Complete name                            : Anna (2019) 1080p [Ukr_Eng] [Video_Hurtom].
Format                                   :
Format version                           : Version 4
File size                                : 10.7 GiB
Duration                                 : 1 h 58 min
Overall bit rate                         : 12.8 Mb/s
Movie name                               : Anna (2019) 1080p [Ukr_Eng] [Video_Hurtom]
Encoded date                             : UTC 2019-09-18 11:37:38
Writing application                      : v30.1.0 ('Forever And More') 64-bit
Writing library                          : libebml v1.3.6 + v1.4.9
Cover                                    : Yes
Attachments                              : cover.jpg

Video
ID                                       : 1
Format                                   : AVC
Format/Info                              : Advanced Video Codec
Format profile                           : [email protected]
Format settings                          : CABAC / 5 Ref Frames
Format settings, CABAC                   : Yes
Format settings, RefFrames               : 5 frames
Codec ID                                 : V_MPEG4/ISO/AVC
Duration                                 : 1 h 58 min
Bit rate                                 : 12.0 Mb/s
Width                                    : 1 920 pixels
Height                                   : 800 pixels
Display aspect ratio                     : 2.40:1
Frame rate mode                          : Constant
Frame rate                               : 23.976 (24000/1001) FPS
Color space                              : YUV
Chroma subsampling                       : 4:2:0
Bit depth                                : 8 bits
Scan type                                : Progressive
Bits/(Pixel*Frame)                       : 0.326
Stream size                              : 9.97 GiB (93%)
Title                                    : Encoded by seleZen
Writing library                          : core 157 r2935 545de2f
Encoding settings                        : cabac=1 / ref=5 / deblock=1:-2:-2 / analyse=0x3:0x133 / me=umh / subme=11 / psy=1 / psy_rd=1.00:0.00 / mixed_ref=1 / me_range=32 / chroma_me=1 / trellis=2 / 8x8dct=1 / cqm=0 / deadzone=21,11 / fast_pskip=0 / chroma_qp_offset=-2 / threads=24 / lookahead_threads=4 / sliced_threads=0 / nr=0 / decimate=0 / interlaced=0 / bluray_compat=0 / constrained_intra=0 / bframes=8 / b_pyramid=2 / b_adapt=2 / b_bias=0 / direct=3 / weightb=1 / open_gop=0 / weightp=2 / keyint=240 / keyint_min=24 / scenecut=40 / intra_refresh=0 / rc_lookahead=60 / rc=2pass / mbtree=0 / bitrate=12000 / ratetol=1.0 / qcomp=0.60 / qpmin=0 / qpmax=51 / qpstep=4 / cplxblur=20.0 / qblur=0.5 / vbv_maxrate=50000 / vbv_bufsize=62500 / nal_hrd=none / filler=0 / ip_ratio=1.40 / pb_ratio=1.30 / aq=3:0.80
Language                                 : English
Default                                  : Yes
Forced                                   : No
Color range                              : Limited
Color primaries                          : BT.709
Transfer characteristics                 : BT.709
Matrix coefficients                      : BT.709

Audio #1
ID                                       : 2
Format                                   : AC-3
Format/Info                              : Audio Coding 3
Commercial name                          : Dolby Digital
Codec ID                                 : A_AC3
Duration                                 : 1 h 58 min
Bit rate mode                            : Constant
Bit rate                                 : 192 kb/s
Channel(s)                               : 2 channels
Channel layout                           : L R
Sampling rate                            : 48.0 kHz
Frame rate                               : 31.250 FPS (1536 SPF)
Bit depth                                : 16 bits
Compression mode                         : Lossy
Stream size                              : 163 MiB (1%)
Title                                    : , 2 ch, 192 Кбт/с
Language                                 : Ukrainian
Service kind                             : Complete Main
Default                                  : Yes
Forced                                   : No

Audio #2
ID                                       : 3
Format                                   : AC-3
Format/Info                              : Audio Coding 3
Commercial name                          : Dolby Digital
Codec ID                                 : A_AC3
Duration                                 : 1 h 58 min
Bit rate mode                            : Constant
Bit rate                                 : 640 kb/s
Channel(s)                               : 6 channels
Channel layout                           : L R C LFE Ls Rs
Sampling rate                            : 48.0 kHz
Frame rate                               : 31.250 FPS (1536 SPF)
Bit depth                                : 16 bits
Compression mode                         : Lossy
Stream size                              : 545 MiB (5%)
Title                                    : АС3, 6 ch, 640 Кбт/с
Language                                 : English
Service kind                             : Complete Main
Default                                  : No
Forced                                   : No

Text
ID                                       : 4
Format                                   : UTF-8
Codec ID                                 : S_TEXT/UTF8
Codec ID/Info                            : UTF-8 Plain Text
Duration                                 : 1 h 52 min
Bit rate                                 : 47 b/s
Count of elements                        : 1308
Stream size                              : 39.3 KiB (0%)
Title                                    : Full
Language                                 : English
Default                                  : No
Forced                                   : No

Menu
00:00:00.000                             : en:Chapter 01
00:06:14.291                             : en:Chapter 02
00:16:42.210                             : en:Chapter 03
00:21:09.185                             : en:Chapter 04
00:31:16.708                             : en:Chapter 05
00:35:25.832                             : en:Chapter 06
00:45:57.338                             : en:Chapter 07
00:53:43.262                             : en:Chapter 08
01:00:52.732                             : en:Chapter 09
01:08:39.907                             : en:Chapter 10
01:14:24.085                             : en:Chapter 11
01:24:15.133                             : en:Chapter 12
01:28:36.520                             : en:Chapter 13
01:36:36.582                             : en:Chapter 14
01:46:36.390                             : en:Chapter 15
01:51:04.783                             : en:Chapter 16
Скріншоти






Джерело: &
Особиста оцінка: 7 - моїй подрузі не сподобалося


 Трекер:    Зареєстрований   

Завантажити / скачати фільм українською



відео для новачків



 Зареєстрований:   2019-09-18 17:40
 Розмір:   10.66 GB 
 Оцінка фільму:   8.8/10 (Голосів: 39)
   
Інші релізи
   Анна / Anna (2019) antik_2008  11 / 0   1.3 GB   2019-09-23 14:11 
   Анна / Anna (2019) 1080p H.265 Ukr/Eng | Sub Eng -Star-Lord-  8 / 0   5.9 GB   2019-09-22 11:38 
   Анна / Anna (2019) 720p Ukr/Eng | Sub Eng 11FrYkT  11 / 0   4.9 GB   2019-09-18 18:13 
   Анна / Anna (2019) Remux 1080p Ukr/Eng | Sub Eng antik_2008  2 / 0   31.14 GB   2019-09-18 17:46 
   Анна / Anna (2019) UHD Remux 4K 2160p HDR H.265 Ukr/Eng | Sub Eng antik_2008  1 / 0   58.88 GB   2019-09-18 17:46 
   Анна / Anna (2019) Ukr/Eng antik_2008  1 / 0   2.01 GB   2019-09-18 17:44 
   Анна / Anna (2019) AVC Ukr/Eng | Sub Eng 11FrYkT  6 / 1   2.05 GB   2019-09-18 10:11 
bot 
робот


З нами з: 30.09.07
Востаннє: 26.05.05
Повідомлень: 25221

2019-09-13 14:19  
Тему перенесено з Анонси релізів до форуму Фільми в HD


antik_2008

grayplus 
Новенький


З нами з: 17.11.16
Востаннє: 13.08.20
Повідомлень: 8

2019-09-13 18:25  
"Сюжет:
Історія молодої сильної жінки, яка виявилася в центрі незвичайної кримінальної інтриги."

Надзвичайно інформативно!

waldi-hurtom 
VIP


З нами з: 07.10.12
Востаннє: 13.08.20
Повідомлень: 1161

2019-09-14 18:32  
Рідкісна лажа. Таке враження, що знято кацапами, хоча і видно некацапське типу Москвич-408 у якості таксі. Люк Бесон знов облажався.
Cerguk 
Свій


З нами з: 30.09.09
Востаннє: 13.08.20
Повідомлень: 105

2019-09-15 09:09  
Як для бойовичка-шпигунського детектива, то в цілому непогано знято, бадьоренько так.
Звичайно що слабо віриться, що непідготовлену дівчинину можна за рік перетворити на супер рембо, що крошить голими руками десяток мужиків-тілоохоронців, але вже нехай...
Єдине що часом напружувало в фільмі - так це об"єми рос. контенту, хотілось би поменше, таке враження що другої країною виробником була не Франція. А так 6 з 10 думаю заслужив, актори хороші.

Anonymous 







2019-09-15 16:01  
Оновлено торент файл.

Заміна відео на 1080p.

baltazar_ua 
Новенький


З нами з: 04.12.17
Востаннє: 08.08.20
Повідомлень: 7

2019-09-15 19:12  
фільм однозначно вартий уваги!
Kamper 
Свій


З нами з: 21.01.13
Востаннє: 12.08.20
Повідомлень: 86

2019-09-16 11:54  
До жанру треба додавати же "фентезі". Мобілки і ноути з мікрохвильовками у Совдепії кінця 80-х - це епічно
Neo_Men 
Свій


З нами з: 21.11.15
Востаннє: 13.08.20
Повідомлень: 97

2019-09-16 22:11  
Сцен-рiп...На руторi є якiснiйший вiд seleZen, з українським буде файно !
Anonymous 







2019-09-18 17:41  
Оновив торент файл. Замінив відео на якісніше.
ika1963 
Відео Гуртом - дизайнер
Відео Гуртом - дизайнер


З нами з: 13.05.10
Востаннє: 02.08.20
Повідомлень: 300

2019-09-22 15:00  
А звук краще буде?
uaalliance 
Новенький


З нами з: 19.10.18
Востаннє: 08.03.20
Повідомлень: 14

2019-09-22 15:47  
дякую за фильм.
zloydark 
Частий відвідувач


З нами з: 11.05.15
Востаннє: 12.08.20
Повідомлень: 28

2019-09-22 23:51  
вельми посередній фільм
andriy_z 
Новенький


З нами з: 20.07.08
Востаннє: 13.08.20
Повідомлень: 12

2020-01-19 11:45  
мені навпаки сподобався, рекомендую до перегляду, доволі хороший бойовик.
Ваш часовий пояс: GMT + 2 Години

Нова тема   Відповісти