Анна / Anna (2019) 1080p Ukr/Eng | Sub Eng

Нові коментарі

Нова тема   Відповісти
Автор Повідомлення
Anonymous 







2019-09-13 14:12  
Анна / Anna (2019) 1080p Ukr/Eng | Sub Eng




Альтернативний постер



«Ніколи не роби зброю мішенню»



Жанр: бойовик, трилер
Країна: Франція, США





Кінокомпанія: EuropaCorp, TF1 Films Production, OCS
Режисер: Люк Бессон
Актори: Саша Лусс, Хелен Міррен, Люк Еванс, Кілліан Мерфі, Лєра Абова, Олександр Петров, Микита Павленко, Ерік Годон

Сюжет:
Анна Полятова – це неймовірна жінка. Вона зуміла поєднати в собі двох абсолютно різних людей. Для всіх навколо Анна – це молода красива російська модель, яка всіх навколо може з легкістю зачарувати. Але насправді за зовнішністю цієї дівчини ховається небезпечний вбивця. Вона може позбавити життя будь-якого, хто зустрінеться їй на шляху, якщо для цього буде необхідність. Анна бере будь-які навіть найскладніші замовлення, адже ніхто не підозрює, що ця тендітна дівчина може вбивати. Вона найнебезпечніша вбивця в усьому світі..


Тривалість:01:58:58
Якість: 1080p

Відео:
кодек:
розмір кадру: 1920x800
бітрейт: ~12,3 Mб/с

Аудіо # 1:
мова: українська
переклад: професійний дубльований
кодек: 2.0
бітрейт: 192 кб/с

Аудіо # 2:
мова: англійська
переклад: оригінал
кодек: 5.1
бітрейт: 640 кб/с

Субтитри:
мова: англійська
тип: програмні (м'які)
формат: *.srt
Скріншоти









Info
Код:
General
Complete name                            : Anna (2019) 1080p [ukr,eng] [ViDeO_Hurtom].
Format                                   :
Format version                           : Version 4
File size                                : 10.6 GiB
Duration                                 : 1 h 59 min
Overall bit rate                         : 12.7 Mb/s
Movie name                               : Anna (2019) 1080p [ukr,eng] [ViDeO_Hurtom]
Encoded date                             : UTC 2019-09-15 10:39:25
Writing application                      : v30.1.0 ('Forever And More') 64-bit
Writing library                          : libebml v1.3.6 + v1.4.9
Cover                                    : Yes
Attachments                              : cover.jpg

Video
ID                                       : 1
Format                                   : AVC
Format/Info                              : Advanced Video Codec
Format profile                           : [email protected]
Format settings                          : CABAC / 4 Ref Frames
Format settings, CABAC                   : Yes
Format settings, RefFrames               : 4 frames
Codec ID                                 : V_MPEG4/ISO/AVC
Duration                                 : 1 h 58 min
Bit rate                                 : 12.3 Mb/s
Width                                    : 1 920 pixels
Height                                   : 800 pixels
Display aspect ratio                     : 2.40:1
Frame rate mode                          : Constant
Frame rate                               : 23.976 (24000/1001) FPS
Color space                              : YUV
Chroma subsampling                       : 4:2:0
Bit depth                                : 8 bits
Scan type                                : Progressive
Bits/(Pixel*Frame)                       : 0.334
Stream size                              : 9.90 GiB (93%)
Writing library                          : core 142 r2479 dd79a61
Encoding settings                        : cabac=1 / ref=1 / deblock=1:0:0 / analyse=0x3:0x3 / me=dia / subme=1 / psy=1 / psy_rd=1.00:0.00 / mixed_ref=0 / me_range=16 / chroma_me=1 / trellis=0 / 8x8dct=1 / cqm=0 / deadzone=21,11 / fast_pskip=1 / chroma_qp_offset=0 / threads=24 / lookahead_threads=4 / sliced_threads=0 / nr=0 / decimate=1 / interlaced=0 / bluray_compat=0 / constrained_intra=0 / bframes=3 / b_pyramid=2 / b_adapt=1 / b_bias=0 / direct=1 / weightb=1 / open_gop=0 / weightp=1 / keyint=240 / keyint_min=24 / scenecut=40 / intra_refresh=0 / rc_lookahead=0 / rc=abr / mbtree=0 / bitrate=12294 / ratetol=1.0 / qcomp=0.60 / qpmin=0 / qpmax=69 / qpstep=4 / vbv_maxrate=62500 / vbv_bufsize=78125 / nal_hrd=none / filler=0 / ip_ratio=1.40 / pb_ratio=1.30 / aq=1:1.00
Default                                  : Yes
Forced                                   : No
Color range                              : Limited
Color primaries                          : BT.709
Transfer characteristics                 : BT.709
Matrix coefficients                      : BT.709

Audio #1
ID                                       : 2
Format                                   : AC-3
Format/Info                              : Audio Coding 3
Commercial name                          : Dolby Digital
Codec ID                                 : A_AC3
Duration                                 : 1 h 59 min
Bit rate mode                            : Constant
Bit rate                                 : 192 kb/s
Channel(s)                               : 2 channels
Channel layout                           : L R
Sampling rate                            : 48.0 kHz
Frame rate                               : 31.250 FPS (1536 SPF)
Bit depth                                : 16 bits
Compression mode                         : Lossy
Delay relative to video                  : -83 ms
Stream size                              : 164 MiB (2%)
Title                                    : , 2 ch, 192 Кбт/с
Language                                 : Ukrainian
Service kind                             : Complete Main
Default                                  : Yes
Forced                                   : No

Audio #2
ID                                       : 3
Format                                   : AC-3
Format/Info                              : Audio Coding 3
Commercial name                          : Dolby Digital
Codec ID                                 : A_AC3
Duration                                 : 1 h 58 min
Bit rate mode                            : Constant
Bit rate                                 : 640 kb/s
Channel(s)                               : 6 channels
Channel layout                           : L R C LFE Ls Rs
Sampling rate                            : 48.0 kHz
Frame rate                               : 31.250 FPS (1536 SPF)
Bit depth                                : 16 bits
Compression mode                         : Lossy
Delay relative to video                  : -5 ms
Stream size                              : 545 MiB (5%)
Title                                    : АС3, 6 ch, 640 Кбт/с
Language                                 : English
Service kind                             : Complete Main
Default                                  : No
Forced                                   : No

Text
ID                                       : 4
Format                                   : UTF-8
Codec ID                                 : S_TEXT/UTF8
Codec ID/Info                            : UTF-8 Plain Text
Duration                                 : 1 h 52 min
Bit rate                                 : 47 b/s
Count of elements                        : 1308
Stream size                              : 39.3 KiB (0%)
Title                                    : Full
Language                                 : English
Default                                  : No
Forced                                   : No
Джерело:
Особиста оцінка: 0 - не дивився


Золотий реліз (завантажене не впливає на рейтинг)
 Трекер:    Зареєстрований   

Завантажити / скачати фільм українською



відео для новачків



 Зареєстрований:   2019-09-15 16:01
 Розмір:   10.6 GB 
 Оцінка фільму:   8.7/10 (Голосів: 16)
   
Інші релізи
   Анна / Anna (2019) Ukr/Eng antik_2008  28 / 0   2.01 GB   2019-09-15 15:32 
   Анна / Anna (2019) 720p Ukr/Eng | Sub Eng 11FrYkT  48 / 0   3.24 GB   2019-09-12 09:39 
   Анна / Anna (2019) AVC Ukr/Eng | Sub Eng 11FrYkT  75 / 1   1.29 GB   2019-09-12 09:34 
bot 
робот


З нами з: 30.09.07
Востаннє: 26.05.05
Повідомлень: 22033

2019-09-13 14:19  
Тему перенесено з Анонси релізів до форуму Фільми в HD


antik_2008

grayplus 
Новенький


З нами з: 17.11.16
Востаннє: 15.09.19
Повідомлень: 5

2019-09-13 18:25  
"Сюжет:
Історія молодої сильної жінки, яка виявилася в центрі незвичайної кримінальної інтриги."

Надзвичайно інформативно!

waldi-hurtom 
VIP


З нами з: 07.10.12
Востаннє: 15.09.19
Повідомлень: 1008

2019-09-14 18:32  
Рідкісна лажа. Таке враження, що знято кацапами, хоча і видно некацапське типу Москвич-408 у якості таксі. Люк Бесон знов облажався.
Cerguk 
Свій


З нами з: 30.09.09
Востаннє: 15.09.19
Повідомлень: 75

2019-09-15 09:09  
Як для бойовичка-шпигунського детектива, то в цілому непогано знято, бадьоренько так.
Звичайно що слабо віриться, що непідготовлену дівчинину можна за рік перетворити на супер рембо, що крошить голими руками десяток мужиків-тілоохоронців, але вже нехай...
Єдине що часом напружувало в фільмі - так це об"єми рос. контенту, хотілось би поменше, таке враження що другої країною виробником була не Франція. А так 6 з 10 думаю заслужив, актори хороші.

Anonymous 







2019-09-15 16:01  
Оновлено торент файл.

Заміна відео на 1080p.

baltazar_ua 
Новенький


З нами з: 04.12.17
Востаннє: 15.09.19
Повідомлень: 2

2019-09-15 19:12  
фільм однозначно вартий уваги!
Ваш часовий пояс: GMT + 2 Години

Нова тема   Відповісти