Ідентифікація Борна / The Bourne Identity (2002) Hybrid 1080p [Open Matte] Ukr/Eng | Sub Eng

Нові коментарі

Нова тема   Відповісти
Автор Повідомлення
Anonymous 







2019-09-13 11:54  
Ідентифікація Борна / The Bourne Identity (2002) Hybrid 1080p [Open Matte] Ukr/Eng | Sub Eng

Ідентифікація Борна / The Bourne Identity (2002) Hybrid 1080p [Open Matte] Ukr/Eng | Sub Eng
Українізовані постери:

Ідентифікація Борна / The Bourne Identity (2002) Hybrid 1080p [Open Matte] Ukr/Eng | Sub Eng



Жанр: бойовик, трилер, детектив, пригодницький
Країна: США, Німеччина, Чехія



Кінокомпанія: Universal Pictures, Kennedy/Marshall Company, Hypnotic, Kalima Productions GmbH & Co. KG, Stillking Films
Режисер: Дуг Ліман / Doug Liman
Актори: Мет Деймон / Matt Damon, Франка Потенте / Franka Potente, Кріс Купер / Chris Cooper, Клайв Овен / Clive Owen, Джулія Стайлз / Julia Stiles, Брайан Кокс / Brian Cox та інші

Сюжет:
Команда італійського риболовецького судна знаходить у водах Середземного моря тіло чоловіка. У нього два кульові поранення в спину та імплантований в стегно мікрофільм з номером рахунку у швейцарському банку. Коли незнайомець приходить до тями, виявляється, що він не пам'ятає хто він, і що з ним трапилося, проте він може говорити на декількох мовах і володіє іншими незвичайними здібностями. Отримавши в Цюріху гроші зі вказаного банківського рахунку, він дізнається своє ім'я - Джейсон Борн. Але справжнє це його ім'я чи ні? Намагаючись відновити своє минуле, він знаходить свою адресу в Парижі, але разом з цим розуміє, що на нього полюють вбивці - агенти спецслужб. Борн умовляє німецьку студентку Мері відвезти його в Париж, щоб з'ясувати все про своє минуле і зрозуміти, хто хоче його вбити ...


Рейтинг MPAA: PG-13 - дітям до 13 років перегляд не бажаний
Вікова категорія: 12+

Тривалість: 01:58:37 [Limited Edition, на 20 секунд довша за театральну версію]
Якість: Hybrid 1080p [Open Matte] - має більше наповнення кадру в порівнянні з блуреєм
Цитата:
OAR Blu-ray EUR накладено поверх Open Matte з декількох джерел HDTV за допомогою AutoOverlay AviSynth plugin. Без англійського хардсабу
Порівняння наповнення кадру

Blu-ray<----------------------------->Цей Hybrid Open Matte


Відео:
кодек:
розмір кадру: 1920 x 1080
бітрейт: 17,2 Мб/с

Аудіо # 1:
мова: українська
переклад: багатоголосий закадровий | Так Треба Продакшн
кодек: 2.0
бітрейт: 192 кбіт/с
ролі озвучили: Мет Деймон - Юрій Ребрик, Браян Кокс - Олег Стальчук, Володимир Терещук і Олена Яблучна

Аудіо # 2:
мова: англійська
переклад: оригінал
кодек: 5.1
бітрейт: 640 кбіт/с

Аудіо # 3:
мова: англійська
переклад: коментарі режисера Дуга Лімана
кодек: 2.0
бітрейт: 192 кбіт/с

Субтитри # 1-3:
мова: англійська (написи, повні, SDH)
тип: програмні (м'які)
формат: *.srt

Збережено оригінальні розділи, як на Blu-ray
Info
Код:

Complete name               : The Bourne Identity [Open Matte] (2002) [Ukr,Eng sub.Eng] Hybrid 1080p [Hurtom].
Format                      :
Format version              : Version 4
File size                   : 15.1 GiB
Duration                    : 1 h 58 min
Overall bit rate            : 18.2 Mb/s
Movie name                  : Ідентифікація Борна / The Bourne Identity [Open Matte] (2002) [Ukr,Eng sub.Eng] Hybrid 1080p [Hurtom]
Encoded date                : UTC 2019-09-13 17:44:55
Writing application         : v37.0.0 ('Leave It') 64-bit
Writing library             : libebml v1.3.9 + v1.5.2
Cover                       : Yes
Attachments                 : cover.jpg

Video
ID                          : 1
Format                      : AVC
Format/Info                 : Advanced Video Codec
Format profile              : [email protected]
Format settings             : CABAC / 4 Ref Frames
Format settings, CABAC      : Yes
Format settings, Reference  : 4 frames
Codec ID                    : V_MPEG4/ISO/AVC
Duration                    : 1 h 58 min
Bit rate                    : 17.2 Mb/s
Width                       : 1 920 pixels
Height                      : 1 080 pixels
Display aspect ratio        : 16:9
Frame rate mode             : Constant
Frame rate                  : 23.976 (24000/1001) FPS
Color space                 : YUV
Chroma subsampling          : 4:2:0
Bit depth                   : 8 bits
Scan type                   : Progressive
Bits/(Pixel*Frame)          : 0.346
Stream size                 : 14.2 GiB (94%)
Title                       : Ідентифікація Борна / The Bourne Identity (2002) Hybrid 1080p [Open Matte, BlueBird]
Writing library             : core 155 r2901 7d0ff22
Encoding settings           : cabac=1 / ref=4 / deblock=1:-3:-3 / analyse=0x3:0x133 / me=umh / subme=11 / psy=1 / psy_rd=1.00:0.00 / mixed_ref=1 / me_range=32 / chroma_me=1 / trellis=2 / 8x8dct=1 / cqm=0 / deadzone=21,11 / fast_pskip=1 / chroma_qp_offset=-2 / threads=12 / lookahead_threads=2 / sliced_threads=0 / nr=0 / decimate=1 / interlaced=0 / bluray_compat=0 / constrained_intra=0 / bframes=8 / b_pyramid=2 / b_adapt=2 / b_bias=0 / direct=1 / weightb=1 / open_gop=0 / weightp=2 / keyint=240 / keyint_min=23 / scenecut=40 / intra_refresh=0 / rc_lookahead=40 / rc=crf / mbtree=0 / crf=17.8 / qcomp=0.60 / qpmin=0 / qpmax=69 / qpstep=4 / vbv_maxrate=50000 / vbv_bufsize=62500 / crf_max=0.0 / nal_hrd=none / filler=0 / ip_ratio=1.40 / pb_ratio=1.30 / aq=1:1.00
Language                    : English
Default                     : Yes
Forced                      : No
Color range                 : Limited
Color primaries             : BT.709
Transfer characteristics    : BT.709
Matrix coefficients         : BT.709

Audio #1
ID                          : 2
Format                      : AC-3
Format/Info                 : Audio Coding 3
Commercial name             : Dolby Digital
Codec ID                    : A_AC3
Duration                    : 1 h 58 min
Bit rate mode               : Constant
Bit rate                    : 192 kb/s
Channel(s)                  : 2 channels
Channel layout              : L R
Sampling rate               : 48.0 kHz
Frame rate                  : 31.250 FPS (1536 SPF)
Compression mode            : Lossy
Stream size                 : 163 MiB (1%)
Title                       : MVO [TTP, Ukraina] 2.0 192 kbps [Hurtom-Breniak, igor911, xslim]
Language                    : Ukrainian
Service kind                : Complete Main
Default                     : Yes
Forced                      : Yes

Audio #2
ID                          : 3
Format                      : AC-3
Format/Info                 : Audio Coding 3
Commercial name             : Dolby Digital
Codec ID                    : A_AC3
Duration                    : 1 h 58 min
Bit rate mode               : Constant
Bit rate                    : 640 kb/s
Channel(s)                  : 6 channels
Channel layout              : L R C LFE Ls Rs
Sampling rate               : 48.0 kHz
Frame rate                  : 31.250 FPS (1536 SPF)
Compression mode            : Lossy
Stream size                 : 543 MiB (4%)
Title                       : Original, 5.1 640 Kbps
Language                    : English
Service kind                : Complete Main
Default                     : No
Forced                      : No

Audio #3
ID                          : 4
Format                      : AC-3
Format/Info                 : Audio Coding 3
Commercial name             : Dolby Digital
Codec ID                    : A_AC3
Duration                    : 1 h 58 min
Bit rate mode               : Constant
Bit rate                    : 192 kb/s
Channel(s)                  : 2 channels
Channel layout              : L R
Sampling rate               : 48.0 kHz
Frame rate                  : 31.250 FPS (1536 SPF)
Compression mode            : Lossy
Stream size                 : 163 MiB (1%)
Title                       : Commentary by Doug Liman
Language                    : English
Service kind                : Complete Main
Default                     : No
Forced                      : No

Text #1
ID                          : 5
Format                      : UTF-8
Codec ID                    : S_TEXT/UTF8
Codec ID/Info               : UTF-8 Plain Text
Duration                    : 1 h 14 min
Bit rate                    : 3 b/s
Count of elements           : 64
Stream size                 : 1.89 KiB (0%)
Title                       : Eng Forced
Language                    : English
Default                     : No
Forced                      : No

Text #2
ID                          : 6
Format                      : UTF-8
Codec ID                    : S_TEXT/UTF8
Codec ID/Info               : UTF-8 Plain Text
Duration                    : 1 h 46 min
Bit rate                    : 41 b/s
Count of elements           : 1018
Stream size                 : 32.7 KiB (0%)
Title                       : Eng Full
Language                    : English
Default                     : No
Forced                      : No

Text #3
ID                          : 7
Format                      : UTF-8
Codec ID                    : S_TEXT/UTF8
Codec ID/Info               : UTF-8 Plain Text
Duration                    : 1 h 50 min
Bit rate                    : 43 b/s
Count of elements           : 1130
Stream size                 : 35.2 KiB (0%)
Title                       : Eng SDH
Language                    : English
Default                     : No
Forced                      : No

Menu
00:00:00.000                : en:"Dead" Man
00:06:28.179                : en:It's Not Coming Back
00:08:34.847                : en:To Switzerland
00:11:38.531                : en:The Wombosi Problem
00:13:38.359                : en:My Name is Jason Bourne
00:19:43.307                : en:The American Embassy
00:25:41.039                : en:Find Jason Bourne
00:29:15.462                : en:Marie Helena Kreutz
00:36:36.319                : en:Home
00:43:56.759                : en:Assassin
00:48:27.738                : en:The Right Thing
00:51:52.234                : en:Paris Pursuit
01:02:01.467                : en:Mr Kane's Hotel Bill
01:10:01.655                : en:The Wombosi Connection
01:18:44.928                : en:Eamon
01:24:20.055                : en:The Killer Outside
01:32:00.181                : en:Bourne's Game
01:38:59.308                : en:A Malfunctioning Weapon
01:45:33.327                : en:Forced Retirement
01:51:53.915                : en:End Titles



Джерело: &
Українська доріжка: Breniak, igor911, xslim; постери: Gelios, FireStar; фільмографії акторів та інформація про озвучення - Віктор.



Срібний реліз (на рейтинг впливає 50% завантаженого)
 Трекер:    Зареєстрований   

Завантажити / скачати фільм українською



відео для новачків



 Зареєстрований:   2019-09-13 22:00
 Розмір:   15.1 GB 
 Оцінка фільму:   9.7/10 (Голосів: 10)
 ЗАЛИШАЙТЕСЬ ЯКОМОГА ДОВШЕ НА РОЗДАЧІ! ЗАВАНТАЖИВ САМ - ДАЙ ЗАВАНТАЖИТИ ІНШИМ!
   
Nehilok 
Новенький


З нами з: 20.10.14
Востаннє: 13.09.19
Повідомлень: 21

2019-09-13 12:40  
Ого, круто, і на 20 секунд довша за театральну версію і Hybrid Open Matte, не думав, що колись дочекаюсь такого варіанту цієї частини. Дякую вельми!!
bot 
робот


З нами з: 30.09.07
Востаннє: 26.05.05
Повідомлень: 22085

2019-09-13 22:00  
Тему перенесено з Анонси релізів до форуму Фільми в HD


igor911

Anonymous 







2019-09-13 22:17  
Хто бачив всі частини - можете пригадати всі яскраві моменти трилогії під знайому мелодію:
https://www.youtube.com/watch?v=_OwzUt_8VBE

0978984777 
Новенький


З нами з: 09.06.18
Востаннє: 19.09.19
Повідомлень: 5

2019-09-14 21:19  
знову без 5+1 ,ну чому ті хто причетні до публікаціі фільмів не розуміють що без 5+1 це зовсім не те ,
Anonymous 







2019-09-14 23:42  
0978984777 написано:
знову без 5+1

Від дутого, псевдо-5.1, того, що робили тут у 2008-2012 роках відмовилися через паршиву якість і наявність великої кількості ґанджу на виході. Щоб з моно запису з ТБ зробити якісний 5.1 треба бути крутим професіоналом в аудіоредагуванні і витратити на доріжку багато годин, вирізаючи пофразово укр.репліки і накладаючи на оригінал. Таке можуть якісно зробити одиниці. З простою заміною центрального каналу записом з ТБ в багатьох випадках виходило як не "зламане піаніно" (через різну тональність) то ехо, відлуння оригіналу у бічних каналах чи інші недоліки. Та й, власне, порушення просторової картини 5.1 вистачило б - бо з центра, який заміняли записом з ТБ валили ВСІ звуки. Ось і в цьому випадку старі псевдо-5.1 доріжки гіршої якості, ніж нові 2.0.

0978984777 
Новенький


З нами з: 09.06.18
Востаннє: 19.09.19
Повідомлень: 5

2019-09-19 08:42  
дякую за змістовне пояснення.
Ваш часовий пояс: GMT + 2 Години

Нова тема   Відповісти