Перевага Борна / The Bourne Supremacy (2004) AVC [Open Matte] Ukr/Eng | Sub Eng

Нові коментарі

Нова тема   Відповісти
Автор Повідомлення
Anonymous 







2019-09-13 09:49  
Перевага Борна / The Bourne Supremacy (2004) AVC [Open Matte] Ukr/Eng | Sub Eng

Перевага Борна / The Bourne Supremacy (2004) AVC [Open Matte] Ukr/Eng | Sub Eng
Українізовані постери:



Перевага Борна / The Bourne Supremacy (2004) AVC [Open Matte] Ukr/Eng | Sub Eng


Жанр: бойовик, трилер, кримінальний, пригодницький
Країна: США, Німеччина



Кінокомпанія: Universal Pictures, Motion Picture THETA Produktionsgesellschaft, The Kennedy/Marshall Company, Ludlum Entertainment, Hypnotic
Режисер: Пол Грінграсс / Paul Greengrass
Актори: Мет Деймон / Matt Damon, Франка Потенте / Franka Potente, Брайан Кокс / Brian Cox, Джулія Стайлз / Julia Stiles, Карл Урбан / Karl Urban, Джоан Аллен / Joan Allen, Гебріел Манн / Gabriel Mann та інші

Сюжет:
Через три роки після подій “Ідентифікації Борна” ЦРУ знову починає переслідувати колишнього агента Джейсона Борна, що втратив пам'ять. Коли внаслідок цього гине подруга Борна, він змушений знову вийти на стежку війни...

Доля заносить Борна в Росію, де на нього чекає безліч характерних для цієї країни, але незвичних західній людині, сюрпризів...


Рейтинг MPAA: PG-13 - дітям до 13 років перегляд не бажаний
Вікова категорія: 12+

Тривалість: 01:48:34
Якість: AVC [Open Matte, Amazon] - має більше наповнення кадру в порівнянні з блуреєм

Відео:
кодек:
розмір кадру: 1024 x 576
бітрейт: 2424 кб/с
примітка: присутні англійські вбудовані (жорсткі) субтитри на фрази російською

Аудіо # 1:
мова: українська
переклад: багатоголосий закадровий - Так Треба Продакшн на замовлення ICTV
ролі озвучили: Володимир Терещук, Роман Семисал, Наталя Задніпровська
кодек: 2.0
бітрейт: 192 кбіт/с

Аудіо # 2:
мова: англійська
переклад: оригінал
кодек: 5.1
бітрейт: 448 кбіт/с

Субтитри # 1:
мова: українська (примусові на написи)
тип: програмні (м'які)
формат: *.srt
переклад та створення: igor911

Субтитри # 2-3:
мова: англійська (повні, SDH)
тип: програмні (м'які)
формат: *.srt
Info
Код:

Complete name               : The Bourne Supremacy [Open Matte] (2004) [Ukr,Eng sub.Eng] AVC [Hurtom].
Format                      :
Format version              : Version 4
File size                   : 2.32 GiB
Duration                    : 1 h 48 min
Overall bit rate            : 3 063 kb/s
Movie name                  : Перевага Борна / The Bourne Supremacy [Open Matte] (2004) [Ukr,Eng sub.Eng] AVC [Hurtom]
Encoded date                : UTC 2019-09-13 15:05:26
Writing application         : v37.0.0 ('Leave It') 64-bit
Writing library             : libebml v1.3.9 + v1.5.2
Cover                       : Yes
Attachments                 : cover.jpg

Video
ID                          : 1
Format                      : AVC
Format/Info                 : Advanced Video Codec
Format profile              : [email protected]
Format settings             : CABAC / 14 Ref Frames
Format settings, CABAC      : Yes
Format settings, Reference  : 14 frames
Codec ID                    : V_MPEG4/ISO/AVC
Duration                    : 1 h 48 min
Bit rate                    : 2 424 kb/s
Width                       : 1 024 pixels
Height                      : 576 pixels
Display aspect ratio        : 16:9
Frame rate mode             : Constant
Frame rate                  : 23.976 (24000/1001) FPS
Color space                 : YUV
Chroma subsampling          : 4:2:0
Bit depth                   : 8 bits
Scan type                   : Progressive
Bits/(Pixel*Frame)          : 0.171
Stream size                 : 1.84 GiB (79%)
Title                       : Перевага Борна / The Bourne Supremacy (2004) AVC [rip by -=DoMiNo=-, Amazon, Open Matte]
Writing library             : core 155 r2901M 7d0ff22
Encoding settings           : cabac=1 / ref=14 / deblock=1:-3:-3 / analyse=0x3:0x133 / me=umh / subme=11 / psy=1 / psy_rd=1.05:0.15 / mixed_ref=1 / me_range=32 / chroma_me=1 / trellis=2 / 8x8dct=1 / cqm=0 / deadzone=21,11 / fast_pskip=0 / chroma_qp_offset=-3 / threads=6 / lookahead_threads=1 / sliced_threads=0 / nr=0 / decimate=1 / interlaced=0 / bluray_compat=0 / constrained_intra=0 / bframes=12 / b_pyramid=2 / b_adapt=2 / b_bias=0 / direct=3 / weightb=1 / open_gop=0 / weightp=2 / keyint=240 / keyint_min=24 / scenecut=40 / intra_refresh=0 / rc=2pass / mbtree=0 / bitrate=2424 / ratetol=1.0 / qcomp=0.70 / qpmin=0 / qpmax=69 / qpstep=4 / cplxblur=20.0 / qblur=0.5 / ip_ratio=1.40 / pb_ratio=1.30 / aq=3:0.95
Language                    : English
Default                     : Yes
Forced                      : No
Color range                 : Limited
Color primaries             : BT.709
Transfer characteristics    : BT.709
Matrix coefficients         : BT.709

Audio #1
ID                          : 2
Format                      : AC-3
Format/Info                 : Audio Coding 3
Commercial name             : Dolby Digital
Codec ID                    : A_AC3
Duration                    : 1 h 48 min
Bit rate mode               : Constant
Bit rate                    : 192 kb/s
Channel(s)                  : 2 channels
Channel layout              : L R
Sampling rate               : 48.0 kHz
Frame rate                  : 31.250 FPS (1536 SPF)
Compression mode            : Lossy
Stream size                 : 149 MiB (6%)
Title                       : MVO [TTP, Ukraina] 2.0 192 kbps [Hurtom-Breniak, xslim]
Language                    : Ukrainian
Service kind                : Complete Main
Default                     : Yes
Forced                      : Yes

Audio #2
ID                          : 3
Format                      : AC-3
Format/Info                 : Audio Coding 3
Commercial name             : Dolby Digital
Codec ID                    : A_AC3
Duration                    : 1 h 48 min
Bit rate mode               : Constant
Bit rate                    : 448 kb/s
Channel(s)                  : 6 channels
Channel layout              : L R C LFE Ls Rs
Sampling rate               : 48.0 kHz
Frame rate                  : 31.250 FPS (1536 SPF)
Compression mode            : Lossy
Stream size                 : 348 MiB (15%)
Title                       : Original [BluRay], 5.1 448 Kbps
Language                    : English
Service kind                : Complete Main
Default                     : No
Forced                      : No

Text #1
ID                          : 4
Format                      : UTF-8
Codec ID                    : S_TEXT/UTF8
Codec ID/Info               : UTF-8 Plain Text
Duration                    : 1 h 39 min
Bit rate                    : 1 b/s
Count of elements           : 23
Stream size                 : 1.17 KiB (0%)
Title                       : Ukr Forced [igor911]
Language                    : Ukrainian
Default                     : Yes
Forced                      : Yes

Text #2
ID                          : 5
Format                      : UTF-8
Codec ID                    : S_TEXT/UTF8
Codec ID/Info               : UTF-8 Plain Text
Duration                    : 1 h 40 min
Bit rate                    : 36 b/s
Count of elements           : 814
Stream size                 : 27.0 KiB (0%)
Title                       : Eng Full
Language                    : English
Default                     : No
Forced                      : No

Text #3
ID                          : 6
Format                      : UTF-8
Codec ID                    : S_TEXT/UTF8
Codec ID/Info               : UTF-8 Plain Text
Duration                    : 1 h 44 min
Bit rate                    : 44 b/s
Count of elements           : 1137
Stream size                 : 33.9 KiB (0%)
Title                       : Eng SDH
Language                    : English
Default                     : No
Forced                      : No



Джерело: &
Українська доріжка: Breniak, xslim, синхронізація звуку під та субтитри: igor911; постери: Gelios, FireStar; фільмографії акторів та інформація про озвучення - Віктор.



Срібний реліз (на рейтинг впливає 50% завантаженого)
 Трекер:    Зареєстрований   

Завантажити / скачати фільм українською



відео для новачків



 Зареєстрований:   2019-09-13 18:18
 Розмір:   2.32 GB 
 Оцінка фільму:   9.5/10 (Голосів: 8)
 ЗАЛИШАЙТЕСЬ ЯКОМОГА ДОВШЕ НА РОЗДАЧІ! ЗАВАНТАЖИВ САМ - ДАЙ ЗАВАНТАЖИТИ ІНШИМ!
   
bot 
робот


З нами з: 30.09.07
Востаннє: 26.05.05
Повідомлень: 22086

2019-09-13 18:18  
Тему перенесено з Анонси релізів до форуму Фільми


igor911

dreamer 
VIP


З нами з: 10.05.08
Востаннє: 19.09.19
Повідомлень: 513

2019-09-17 21:16  
досить цікава стрічка....не погане продовження.. 9 з 10
Ваш часовий пояс: GMT + 2 Години

Нова тема   Відповісти