Місто загублених дітей (The City of Lost Children) / La cité des enfants perdus (1995) AVC Fre | Sub Ukr/Fre/Eng

Нові коментарі

Нова тема   Відповісти
Автор Повідомлення
Anonymous 







2019-09-12 22:22  
Місто загублених дітей (The City of Lost Children) / La cité des enfants perdus (1995) AVC Fre | Sub Ukr/Fre/Eng

Місто загублених дітей (The City of Lost Children) / La cité des enfants perdus (1995) AVC Fre | Sub Ukr/Fre/Eng
Альтернативні постери:

Місто загублених дітей (The City of Lost Children) / La cité des enfants perdus (1995) AVC Fre | Sub Ukr/Fre/Eng



Жанр: фантастика, фентезі, драма, пригодницький
Країна: Франція, Німеччина, Іспанія, Бельгія, США



Кіностудія / кінокомпанія: Club d'Investissement Média, Eurimages, Studio Image, Canal+, Centre National de la Cinématographie, Lumière Pictures, France 3 Cinéma та інші
Режисер: Жан-П'єр Жене / Jean-Pierre Jeunet та Марк Каро / Marc Caro
Актори: Рон Перлман / Ron Perlman, Жудіт Вітте / Judith Vittet, Домінік Пінон / Dominique Pinon, Даніель Емільфорк / Daniel Emilfork, Жан-Клод Дрейфус / Jean-Claude Dreyfus, Руфус / Rufus та інші

Сюжет:
Неподалік гавані насиченого вогкістю і оповитого туманом похмурого Міста загублених дітей, у замку на березі моря живе страшний учений на ім'я Кранк, передчасно постарілий через повну нездатність спати. За наказом Кранка його підручні-циклопи викрадають дітей і затягують у похмуру лабораторію, де лиходій перетворює їхні сни у свої власні. Та через те, що діти страшенно його бояться, він бачить тільки їхні кошмари. У циркового силача на ім'я Один зникає молодший брат. Щоб його знайти Одному знадобиться допомога хороброї дев'ятирічної дівчинки Мієтти...
Офіційний трейлер:


Рейтинг MPAA: R - особам до 17 років обов'язкова присутність батьків або дорослого опікуна
Вікова категорія: 16+

Тривалість: 01:52:35
Якість: AVC
Відео:
кодек:
розмір кадру: 1024 x 556
бітрейт: 2952 кб/с

Аудіо:
мова: французька
переклад: оригінал
кодек: 5.1
бітрейт: 448 кб/с

Субтитри # 1:
мова: українська
тип: програмні (м'які)
формат: *.srt
переклад: Demetrios
Demetrios написано:
переклад з російської, у складних моментах звіряв з французькими і англійськими


Субтитри # 2-3:
мова: французька, англійська
тип: програмні (м'які)
формат: *.srt
Info
Код:

Complete name               : La cite des enfants perdus (The City of Lost Children) (1995) [Fre sub.Ukr,Fre,Eng] AVC [Hurtom].
Format                      :
Format version              : Version 4
File size                   : 2.67 GiB
Duration                    : 1 h 52 min
Overall bit rate            : 3 401 kb/s
Movie name                  : Місто загублених дітей / The City of Lost Children / La cité des enfants perdus (1995) [Fre sub.Ukr,Fre,Eng] AVC [Hurtom]
Encoded date                : UTC 2019-09-12 18:25:43
Writing application         : v37.0.0 ('Leave It') 64-bit
Writing library             : libebml v1.3.9 + v1.5.2
Cover                       : Yes
Attachments                 : cover.jpg

Video
ID                          : 1
Format                      : AVC
Format/Info                 : Advanced Video Codec
Format profile              : [email protected]
Format settings             : CABAC / 11 Ref Frames
Format settings, CABAC      : Yes
Format settings, Reference  : 11 frames
Codec ID                    : V_MPEG4/ISO/AVC
Duration                    : 1 h 52 min
Bit rate                    : 2 952 kb/s
Width                       : 1 024 pixels
Height                      : 556 pixels
Display aspect ratio        : 1.85:1
Frame rate mode             : Constant
Frame rate                  : 23.976 (24000/1001) FPS
Color space                 : YUV
Chroma subsampling          : 4:2:0
Bit depth                   : 8 bits
Scan type                   : Progressive
Bits/(Pixel*Frame)          : 0.216
Stream size                 : 2.32 GiB (87%)
Title                       : Місто загублених дітей / The City of Lost Children / La cité des enfants perdus (1995) AVC [Koenig]
Writing library             : core 157 r2935 545de2f
Encoding settings           : cabac=1 / ref=11 / deblock=1:-3:-3 / analyse=0x3:0x133 / me=umh / subme=10 / psy=1 / psy_rd=1.00:0.05 / mixed_ref=1 / me_range=32 / chroma_me=1 / trellis=2 / 8x8dct=1 / cqm=0 / deadzone=21,11 / fast_pskip=0 / chroma_qp_offset=-3 / threads=3 / lookahead_threads=1 / sliced_threads=0 / nr=0 / decimate=1 / interlaced=0 / bluray_compat=0 / constrained_intra=0 / bframes=12 / b_pyramid=2 / b_adapt=2 / b_bias=0 / direct=3 / weightb=1 / open_gop=0 / weightp=2 / keyint=240 / keyint_min=23 / scenecut=40 / intra_refresh=0 / rc_lookahead=40 / rc=2pass / mbtree=1 / bitrate=2952 / ratetol=1.0 / qcomp=0.60 / qpmin=10 / qpmax=51 / qpstep=4 / cplxblur=20.0 / qblur=0.5 / vbv_maxrate=50000 / vbv_bufsize=62500 / nal_hrd=none / filler=0 / ip_ratio=1.40 / aq=1:1.00
Language                    : French
Default                     : Yes
Forced                      : No

Audio
ID                          : 2
Format                      : AC-3
Format/Info                 : Audio Coding 3
Commercial name             : Dolby Digital
Codec ID                    : A_AC3
Duration                    : 1 h 52 min
Bit rate mode               : Constant
Bit rate                    : 448 kb/s
Channel(s)                  : 6 channels
Channel layout              : L R C LFE Ls Rs
Sampling rate               : 48.0 kHz
Frame rate                  : 31.250 FPS (1536 SPF)
Bit depth                   : 16 bits
Compression mode            : Lossy
Stream size                 : 361 MiB (13%)
Title                       : Original
Language                    : French
Service kind                : Complete Main
Default                     : No
Forced                      : No

Text #1
ID                          : 3
Format                      : UTF-8
Codec ID                    : S_TEXT/UTF8
Codec ID/Info               : UTF-8 Plain Text
Duration                    : 1 h 43 min
Bit rate                    : 52 b/s
Count of elements           : 798
Stream size                 : 40.0 KiB (0%)
Title                       : Ukr Full [Hurtom-Demetrios]
Language                    : Ukrainian
Default                     : Yes
Forced                      : Yes

Text #2
ID                          : 4
Format                      : UTF-8
Codec ID                    : S_TEXT/UTF8
Codec ID/Info               : UTF-8 Plain Text
Duration                    : 1 h 42 min
Bit rate                    : 35 b/s
Count of elements           : 795
Stream size                 : 26.8 KiB (0%)
Title                       : Fre Full
Language                    : French
Default                     : No
Forced                      : No

Text #3
ID                          : 5
Format                      : UTF-8
Codec ID                    : S_TEXT/UTF8
Codec ID/Info               : UTF-8 Plain Text
Duration                    : 1 h 42 min
Bit rate                    : 31 b/s
Count of elements           : 796
Stream size                 : 23.9 KiB (0%)
Title                       : Eng Full
Language                    : English
Default                     : No
Forced                      : No


Джерело: &


Золотий реліз (завантажене не впливає на рейтинг)
 Трекер:    Зареєстрований   

Завантажити / скачати фільм українською



відео для новачків



 Зареєстрований:   2019-09-12 22:22
 Розмір:   2.67 GB 
 Оцінка фільму:   10/10 (Голосів: 3)
 ЗАЛИШАЙТЕСЬ ЯКОМОГА ДОВШЕ НА РОЗДАЧІ! ЗАВАНТАЖИВ САМ - ДАЙ ЗАВАНТАЖИТИ ІНШИМ!
   
+380954897458 
VIP


З нами з: 02.06.17
Востаннє: 15.10.19
Повідомлень: 451

2019-09-15 16:46  
Дякую, мої молитви були почуті!
Ваш часовий пояс: GMT + 2 Години

Нова тема   Відповісти