Ясновидець (Сезон 1) / Psych (Season 1) (2006-2007) 720p Ukr/Eng

Нові коментарі

Нова тема   Відповісти
Автор Повідомлення
Anonymous 







2019-09-12 15:18  
Ясновидець (Сезон 1) / Psych (Season 1) (2006-2007) 720p Ukr/Eng






Жанр: комедія, містика, детектив, кримінальний.
Країна: США



Кінокомпанія: USA Network
Актори: Джеймс Родай, Дьюлі Хілл, Меггі Лоусон, Тімоті Омандсон, Кірстен Нелсон.

Сюжет:
Головний герой Шон Спенсер під час перегляду новин дізнається хто пограбував магазин і повідомляє про це поліції. Прийшовши до відділку за винагородою копи йому не вірять і думають, що він був спільником. Тут Шону доводиться вдати ніби він ясновидець, щоб його не заарештували, але насправді ніяких паранормальних здібностей в нього нема. У дитинстві його батько поліцейський навчив помічати різні деталі на які звичайні люди не звертають увагу і навчив детективним навичкам. Надалі він зі своїм другом Ґасом відкриють приватне детективне агентство та будуть вдавати ніби він дійсно ясновидець та допомагати поліції розкривати справи.


Тривалість: 1 серія: пілотна 58хв інші 45хв (цілком серій: 15 з 15)
Перелік серій
1.Pilot
2.Spellingg Bee
3.Speak Now or Forever Hold Your Piece
4.Woman Seeking Dead Husband: Smokers Okay, No Pets
5.9 Lives
6.Weekend Warriors
7.Who Ya Gonna Call?
8.Shawn vs. the Red Phantom
9.Forget Me Not
10.From Earth to Starbucks
11.He Loves Me, He Loves Me Not, He Loves Me, Oops, He's Dead
12.Cloudy Chance of Murder
13.Game, Set... Muuurder?
14.Poker? I Barely Know Her
15.Scary Sherry: Bianca's Toast
Якість:
Відео:
кодек:
розмір кадру: 1280 х 720
бітрейт: 4100 кб/с

Аудіо # 1:
мова: українська
переклад: багатоголосий закадровий
кодек: 2.0
бітрейт: 192 кб/с
примітка: пілотна серія на 7хв довша за ту, що показав телеканал.

Джерело озвучення:


Аудіо # 2:
мова: англійська
переклад: оригінал
кодек: E-AC-3 5.1 / 2.0
бітрейт: 384 / 158 кб/с

Субтитри # 1:
мова: українська, на не озвучені 7 хв.
формат: .srt
переклад: SubAutumn
Info
Video
ID : 1
Format : AVC
Format/Info : Advanced Video Codec
Format profile : [email protected]
Format settings : 2 Ref Frames
Format settings, CABAC : No
Format settings, Reference fra : 2 frames
Codec ID : V_MPEG4/ISO/AVC
Duration : 1 h 18 min
Bit rate : 4 089 kb/s
Width : 1 280 pixels
Height : 720 pixels
Display aspect ratio : 16:9
Frame rate mode : Constant
Frame rate : 23.976 (24000/1001) FPS
Color space : YUV
Chroma subsampling : 4:2:0
Bit depth : 8 bits
Scan type : Progressive
Bits/(Pixel*Frame) : 0.185
Stream size : 2.24 GiB (88%)
Language : English
Default : Yes
Forced : No
Color range : Limited
Color primaries : BT.709
Transfer characteristics : BT.709
Matrix coefficients : BT.709

Audio #1
ID : 2
Format : AC-3
Format/Info : Audio Coding 3
Commercial name : Dolby Digital
Codec ID : A_AC3
Duration : 1 h 18 min
Bit rate mode : Constant
Bit rate : 192 kb/s
Channel(s) : 2 channels
Channel layout : L R
Sampling rate : 48.0 kHz
Frame rate : 31.250 FPS (1536 SPF)
Bit depth : 16 bits
Compression mode : Lossy
Stream size : 107 MiB (4%)
Title : MVO - Індиго ТВ
Language : Ukrainian
Service kind : Complete Main
Default : Yes
Forced : No

Audio #2
ID : 3
Format : E-AC-3
Format/Info : Enhanced AC-3
Commercial name : Dolby Digital Plus
Codec ID : A_EAC3
Duration : 1 h 18 min
Bit rate mode : Constant
Bit rate : 384 kb/s
Channel(s) : 6 channels
Channel layout : L R C LFE Ls Rs
Sampling rate : 48.0 kHz
Frame rate : 31.250 FPS (1536 SPF)
Compression mode : Lossy
Stream size : 215 MiB (8%)
Language : English
Service kind : Complete Main
Default : No
Forced : No

Text
ID : 4
Format : UTF-8
Codec ID : S_TEXT/UTF8
Codec ID/Info : UTF-8 Plain Text
Duration : 7 min 11 s
Bit rate : 144 b/s
Count of elements : 129
Stream size : 7.59 KiB (0%)
Title : Переклад - SubAutumn
Language : Ukrainian
Default : Yes
Forced : No
скріншоти









Подяка: пану, що побажав залишитися анонімним за запис сирих доріжок та команді SubAutumn за переклад субтитрів.
Джерело:
Особиста оцінка: 10 - без зайвих вагань рекомендую всім!


Бронзовий реліз (на рейтинг впливає 75% завантаженого)
 Трекер:    Зареєстрований   

Завантажити / скачати серіал українською



відео для новачків



 Зареєстрований:   2019-09-17 19:06
 Розмір:   21.19 GB 
 Оцінка серіалу:   9.3/10 (Голосів: 18)
   
bot 
робот


З нами з: 30.09.07
Востаннє: 26.05.05
Повідомлень: 26411

2019-09-15 18:44  
Тему перенесено з Анонси релізів до форуму Серіали в HD


leicheman

Cartwright 
VIP


З нами з: 23.03.13
Востаннє: 29.11.20
Повідомлень: 393

2019-09-15 21:17  
Продовження буде? Є записи решти сезонів?
Anonymous 







2019-09-15 22:03  
Cartwright написано:
Продовження буде? Є записи решти сезонів?


буду робити по трохи, записи є до 6 сезонів.

Anonymous 







2019-09-17 19:08  
Пофіксив другу серію (туди випадково попала реклама з телеканалу)
Перевантажте тільки її хто вже вантажив серіал повністю.

serpantin2012 
Новенький


З нами з: 27.12.14
Востаннє: 27.11.20
Повідомлень: 10

2019-09-20 17:25  
Файний серіал. Будь ласка продовжте!
vavlap 
Свій


З нами з: 24.01.15
Востаннє: 29.11.20
Повідомлень: 134

2019-11-01 20:28  
Схоже на Менталіста
Ваш часовий пояс: GMT + 2 Години

Нова тема   Відповісти