Воїн кунг-фу / Tofu (2017) 1080p

Нові коментарі

Нова тема   Відповісти
Останній раз роздавалося zmiypvv (2021-03-08)
Автор Повідомлення
sergiyko.5 
Забанено
Забанено


З нами з: 25.02.16
Востаннє: 29.10.20
Повідомлень: 3648

2019-09-12 13:14  
Воїн кунг-фу / Tofu (2017) 1080p

Воїн кунг-фу / Tofu (2017) 1080p

Жанр: пригоди, фентезі
Країна: Китай
Кінокомпанія: Kingkey Animation Studios
Режисер: Цзоу І
Актори:Чень Пейси, Цзі Гуаньлінь, Лі Лічунь

Сюжет:
Добродушний і пухкенький Тофу прагне до вивчення магічного мистецтва кунг-фу, щоби продовжити справу великого вчителя Лінь Шао. На шляху до досконалості Тофу не тільки зіткнеться з безліччю труднощів в особі темних чудовиськ, але й пізнає справжню магію бойових мистецтв. Але найважливіша боротьба відбудеться в героя зі своїм власним голодом.




Тривалість: 01:19:59
Якість:

Відео: кодек: розмір кадру: 1920 х 800 бітрейт: 4000 кб/с
Аудіо: мова: українська переклад: багатоголосий закадровий (псевдодубляж) кодек: 2.0 бітрейт: 192 кб/с
Про файл:
General
Unique ID : 218570332434748805714255897373869339484 (0xA46F1D64C86E68F077C102D6EA77F35C)
Complete name : D:\Documents\Torrents\MULTSER\Tofu.2017.1080p..
Format :
Format version : Version 4
File size : 2.34 GiB
Duration : 1 h 19 min
Overall bit rate : 4 191 kb/s
Movie name : rip by sergiyko
Encoded date : UTC 2019-09-12 11:40:58
Writing application : v36.0.0 ('Is That Jazz?') 64-bit
Writing library : libebml v1.3.9 + v1.5.2

Video
ID : 1
Format : AVC
Format/Info : Advanced Video Codec
Format profile : [email protected]
Format settings : CABAC / 3 Ref Frames
Format settings, CABAC : Yes
Format settings, Reference : 3 frames
Format settings, GOP : M=1, N=72
Codec ID : V_MPEG4/ISO/AVC
Duration : 1 h 19 min
Bit rate : 3 999 kb/s
Width : 1 920 pixels
Height : 800 pixels
Display aspect ratio : 2.40:1
Frame rate mode : Constant
Frame rate : 24.000 FPS
Color space : YUV
Chroma subsampling : 4:2:0
Bit depth : 8 bits
Scan type : Progressive
Bits/(Pixel*Frame) : 0.108
Stream size : 2.23 GiB (95%)
Title : Tofu 2017
Language : Chinese
Default : Yes
Forced : No

Audio
ID : 2
Format : LC
Format/Info : Advanced Audio Codec Low Complexity
Codec ID : A_AAC-2
Duration : 1 h 19 min
Bit rate : 192 kb/s
Channel(s) : 2 channels
Channel layout : L R
Sampling rate : 44.1 kHz
Frame rate : 43.066 FPS (1024 SPF)
Compression mode : Lossy
Delay relative to video : 23 ms
Stream size : 108 MiB (5%)
Title : DUB ACC 2ch
Language : Ukrainian
Default : Yes
Forced : No
Скріншоти:


 Трекер:    Зареєстрований   

Завантажити / скачати мультфільм українською



відео для новачків



 Зареєстрований:   2019-09-12 13:43
 Розмір:   2.34 GB 
 Оцінка мультфільму:   9.8/10 (Голосів: 6)
   
Інші релізи
   Воїн кунг-фу / Tofu (2017) AVC sergiyko.5  6 / 0   810 MB   2019-09-12 14:44 
bot 
робот


З нами з: 30.09.07
Востаннє: 26.05.05
Повідомлень: 27338

2019-09-12 13:14  
Тему перенесено з Мультфільми в HD до форуму Анонси релізів


sergiyko.5

bot 
робот


З нами з: 30.09.07
Востаннє: 26.05.05
Повідомлень: 27338

2019-09-12 13:43  
Тему перенесено з Анонси релізів до форуму Мультфільми в HD


sergiyko.5

Ваш часовий пояс: GMT + 2 Години

Нова тема   Відповісти