Особливо небезпечний / Wanted (2008) [Open Matte] 1080p 3xUkr/Eng | Sub Eng

Нові коментарі

Нова тема   Відповісти
Останній раз роздавалося kernpro (2019-10-04)
Автор Повідомлення
Anonymous 







2019-09-11 23:27  
Особливо небезпечний / Wanted (2008) [Open Matte] 1080p 3xUkr/Eng | Sub Eng

Особливо небезпечний / Wanted (2008) [Open Matte] 1080p 3xUkr/Eng | Sub Eng


Жанр: бойовик, кримінальний, трилер, фантастика
Країна: США, Німеччина
Кінокомпанія: Universal Pictures, Spyglass Entertainment, Top Cow Productions
Режисер: Тимур Бекмамбетов
Актори: Джеймс МакЕвой, Морґан Фрімен, Анджеліна Джолі, Теренс Стемп, Томас Кречманн, Констянтин Хабенський

Сюжет:
25-річний Веслі Гібсон нудьгує на роботі і страждає через те, що подружка зраджує йому з найкращим другом. Несподівано у його життя вривається красуня Фокс, яка розповідає Веслі, що його батько був членом Братства - таємної ліги вбивць.

Тривалість: 01:50:01
Якість: [Open Matte]

Відео:
кодек:
розмір кадру: 1920 x 1080
бітрейт: 12 509 кб/с

Аудіо # 1:
мова: українська
переклад: професійний дубльований
кодек: AC-3 5.1
бітрейт: 384 кб/с

Аудіо # 2:
мова: українська
переклад: багатоголосий закадровий ,
кодек: AC-3 2.0
бітрейт: 192 кб/с

Аудіо # 3:
мова: українська
переклад: багатоголосий закадровий
кодек: AC-3 2.0
бітрейт: 192 кб/с

Аудіо # 4:
мова: англійська
переклад: оригінал
кодек: 5.1
бітрейт: 1510 кб/с

Субтитри # 1-2: (Full, SDH)
мова: англійська
тип: програмні (м'які)
формат: *.srt


Info
Код:
General
Unique ID                                : 263665251024872261978369818233417203242 (0xC65C148994B5A54649CB3B03AF737E2A)
Complete name                            : Wanted (2008) 1080p [3xUKR_ENG] [Hurtom].
Format                                   :
Format version                           : Version 4
File size                                : 11.4 GiB
Duration                                 : 1 h 50 min
Overall bit rate mode                    : Variable
Overall bit rate                         : 14.8 Mb/s
Movie name                               : Особливо небезпечний / Wanted (2008)
Encoded date                             : UTC 2019-09-11 20:58:50
Writing application                      : v20.0.0 ('I Am The Sun') 64-bit
Writing library                          : libebml v1.3.5 + v1.4.8
Cover                                    : Yes
Attachments                              : Cover.jpg

Video
ID                                       : 1
Format                                   : AVC
Format/Info                              : Advanced Video Codec
Format profile                           : [email protected]
Format settings                          : CABAC / 4 Ref Frames
Format settings, CABAC                   : Yes
Format settings, Reference frames        : 4 frames
Codec ID                                 : V_MPEG4/ISO/AVC
Duration                                 : 1 h 50 min
Bit rate mode                            : Variable
Bit rate                                 : 12.5 Mb/s
Maximum bit rate                         : 15.0 Mb/s
Width                                    : 1 920 pixels
Height                                   : 1 080 pixels
Display aspect ratio                     : 16:9
Frame rate mode                          : Constant
Frame rate                               : 23.976 (24000/1001) FPS
Color space                              : YUV
Chroma subsampling                       : 4:2:0
Bit depth                                : 8 bits
Scan type                                : Progressive
Bits/(Pixel*Frame)                       : 0.252
Stream size                              : 9.61 GiB (85%)
Title                                    : Особливо небезпечний / Wanted (2008)
Language                                 : English
Default                                  : Yes
Forced                                   : No
Color range                              : Limited
Color primaries                          : BT.709
Transfer characteristics                 : BT.709
Matrix coefficients                      : BT.709

Audio #1
ID                                       : 2
Format                                   : AC-3
Format/Info                              : Audio Coding 3
Commercial name                          : Dolby Digital
Codec ID                                 : A_AC3
Duration                                 : 1 h 50 min
Bit rate mode                            : Constant
Bit rate                                 : 384 kb/s
Channel(s)                               : 6 channels
Channel layout                           : L R C LFE Ls Rs
Sampling rate                            : 48.0 kHz
Frame rate                               : 31.250 FPS (1536 SPF)
Bit depth                                : 16 bits
Compression mode                         : Lossy
Stream size                              : 302 MiB (3%)
Title                                    : / 5.1 Ch / 384 kbps / ПД / DVD
Language                                 : Ukrainian
Service kind                             : Complete Main
Default                                  : Yes
Forced                                   : Yes

Audio #2
ID                                       : 3
Format                                   : AC-3
Format/Info                              : Audio Coding 3
Commercial name                          : Dolby Digital
Codec ID                                 : A_AC3
Duration                                 : 1 h 50 min
Bit rate mode                            : Constant
Bit rate                                 : 192 kb/s
Channel(s)                               : 2 channels
Channel layout                           : L R
Sampling rate                            : 48.0 kHz
Frame rate                               : 31.250 FPS (1536 SPF)
Bit depth                                : 16 bits
Compression mode                         : Lossy
Stream size                              : 151 MiB (1%)
Title                                    : / 2.0 Ch / 192 kbps / БЗ / NLO, Kanal Ukraina
Language                                 : Ukrainian
Service kind                             : Complete Main
Default                                  : No
Forced                                   : No

Audio #3
ID                                       : 4
Format                                   : AC-3
Format/Info                              : Audio Coding 3
Commercial name                          : Dolby Digital
Codec ID                                 : A_AC3
Duration                                 : 1 h 49 min
Bit rate mode                            : Constant
Bit rate                                 : 192 kb/s
Channel(s)                               : 2 channels
Channel layout                           : L R
Sampling rate                            : 48.0 kHz
Frame rate                               : 31.250 FPS (1536 SPF)
Bit depth                                : 16 bits
Compression mode                         : Lossy
Stream size                              : 151 MiB (1%)
Title                                    : / 2.0 Ch / 192 kbps / БЗ / Cine+
Language                                 : Ukrainian
Service kind                             : Complete Main
Default                                  : No
Forced                                   : No

Audio #4
ID                                       : 5
Format                                   :
Format/Info                              : Digital Theater Systems
Codec ID                                 : A_DTS
Duration                                 : 1 h 50 min
Bit rate mode                            : Constant
Bit rate                                 : 1 509 kb/s
Channel(s)                               : 6 channels
Channel layout                           : C L R Ls Rs LFE
Sampling rate                            : 48.0 kHz
Frame rate                               : 93.750 FPS (512 SPF)
Bit depth                                : 24 bits
Compression mode                         : Lossy
Stream size                              : 1.16 GiB (10%)
Title                                    : / 5.1 Ch / 1509 kbps / Original
Language                                 : English
Default                                  : No
Forced                                   : No

Text #1
ID                                       : 6
Format                                   : UTF-8
Codec ID                                 : S_TEXT/UTF8
Codec ID/Info                            : UTF-8 Plain Text
Duration                                 : 1 h 41 min
Bit rate                                 : 35 b/s
Count of elements                        : 822
Stream size                              : 26.3 KiB (0%)
Title                                    : Full
Language                                 : English
Default                                  : No
Forced                                   : No

Text #2
ID                                       : 7
Format                                   : UTF-8
Codec ID                                 : S_TEXT/UTF8
Codec ID/Info                            : UTF-8 Plain Text
Duration                                 : 1 h 41 min
Bit rate                                 : 40 b/s
Count of elements                        : 993
Stream size                              : 29.7 KiB (0%)
Title                                    : SDH
Language                                 : English
Default                                  : No
Forced                                   : No

Menu
00:00:00.000                             : en:The Fraternity
00:07:10.305                             : en:Stressed Out
00:13:06.827                             : en:Greatest Assassin
00:21:06.639                             : en:One of Us
00:26:34.216                             : en:I'm the Man
00:32:19.895                             : en:In the Factory
00:37:38.755                             : en:Feeling Good
00:42:13.070                             : en:One By One
00:45:30.517                             : en:Who Are You?
00:52:01.241                             : en:Loom of Fate
00:56:32.219                             : en:First Target
01:01:07.161                             : en:Second Target
01:04:08.592                             : en:A Message
01:09:52.602                             : en:Meeting the Maker
01:13:40.412                             : en:Off Track
01:20:33.900                             : en:Perfet Weapon
01:27:19.063                             : en:Kill Him
01:33:32.936                             : en:Follow the Code
01:39:34.839                             : en:Taking Control
01:42:30.431                             : en:End Titles
Світлини




Джерело: &
Особиста оцінка: 0 - не дивився


 Трекер:    Зареєстрований   

Завантажити / скачати фільм українською



відео для новачків



 Зареєстрований:   2019-09-11 23:27
 Розмір:   11.37 GB 
 Оцінка фільму:   6.4/10 (Голосів: 5)
   
+380954897458 
VIP


З нами з: 02.06.17
Востаннє: 11.11.19
Повідомлень: 473

2019-09-12 11:57  
Пам'ятаю, московітський прихвостень Бекмамбетов протестував проти прокату його фільму в Україні українською мовою. Великий и могучий має бути скрізь, і в наших кінотеатрах! Хоча він і довбаний мудак, на мою думку, але слід віддати йому належне- екшен зняв ну дуже круто, винахідливо і видовищно. А от його "Бен Гура" ніколи не дивитимусь, бо класики не слід чіпати, а ще тому, що Бекмамбетов - мудак.
І-р 
Свій


З нами з: 21.07.16
Востаннє: 11.11.19
Повідомлень: 64

2019-09-12 16:40  
+380954897458
Точно! Сподіваюсь він гикнув добре у незручний момент!

Ваш часовий пояс: GMT + 2 Години

Нова тема   Відповісти