Придорожній клуб / Придорожній заклад / Road House (1989) [Remastered] 720p 2xUkr/Eng | Sub Eng

Нові коментарі

Нова тема   Відповісти
Останній раз роздавалося -Star-Lord- (2019-10-17)
Автор Повідомлення
Anonymous 







2019-09-11 22:31  
Придорожній клуб / Придорожній заклад / Road House (1989) [Remastered] 720p 2xUkr/Eng | Sub Eng

Придорожній клуб / Придорожній заклад / Road House (1989) [Remastered] 720p 2xUkr/Eng | Sub Eng


Жанр: бойовик, трилер
Країна: США
Кінокомпанія: Silver Pictures, Star Partners II Ltd.
Режисер: Роуді Геррінґтон / Rowdy Herrington
Актори: Патрік Свейзі / Patrick Swayze, Келлі Лінч / Kelly Lynch, Сем Елліотт / Sam Elliott, Бен Ґаззара / Ben Gazzara, Маршалл Р. Тіґ / Marshall R. Teague та інші

Сюжет:
Долтон, легендарний викидайло, прибуває в Джаспер у штаті Міссурі з певною метою: відновити порядок в небезпечному барі "Біса з два". По мірі того, як він позбавляє бар від головорізів, хуліганів і найманих убивць, міцнішає гнів їхнього роботодавця - сумнозвісного рекетира Бреда Веслі. Місто живе в страху перед Веслі, проте Далтон готовий діяти...

Тривалість: 01:54:03
Якість: [Remastered]

Відео:
кодек:
розмір кадру: 1272 x 542
бітрейт: 6 551 кб/с

Аудіо # 1:
мова: українська
переклад: багатоголосий закадровий
кодек: AC-3 2.0
бітрейт: 192 кб/с

Аудіо # 2:
мова: українська
переклад: багатоголосий закадровий
кодек: AC-3 2.0
бітрейт: 192 кб/с

Аудіо # 3:
мова: англійська
переклад: оригінал
кодек: AC-3 5.1
бітрейт: 448 кб/с

Субтитри # 1-3: (Full, SDH, SDH, With Songs)
мова: англійська
тип: програмні (м'які)
формат: *.srt


Info
Код:
General
Unique ID                                : 150205975291082323719506069768911878453 (0x71009E5A34226A7B4957F1E6174A7935)
Complete name                            : Road House (1989) 720p [2xUKR_ENG] [Hurtom].
Format                                   :
Format version                           : Version 4
File size                                : 5.88 GiB
Duration                                 : 1 h 54 min
Overall bit rate                         : 7 379 kb/s
Movie name                               : Придорожній клуб / Придорожній заклад / Road House (1989)
Encoded date                             : UTC 2019-09-11 18:45:01
Writing application                      : v20.0.0 ('I Am The Sun') 64-bit
Writing library                          : libebml v1.3.5 + v1.4.8
Cover                                    : Yes
Attachments                              : Cover.jpg

Video
ID                                       : 1
Format                                   : AVC
Format/Info                              : Advanced Video Codec
Format profile                           : [email protected]
Format settings                          : CABAC / 12 Ref Frames
Format settings, CABAC                   : Yes
Format settings, Reference frames        : 12 frames
Codec ID                                 : V_MPEG4/ISO/AVC
Duration                                 : 1 h 54 min
Bit rate                                 : 6 551 kb/s
Width                                    : 1 272 pixels
Height                                   : 542 pixels
Display aspect ratio                     : 2.35:1
Frame rate mode                          : Constant
Frame rate                               : 23.976 (24000/1001) FPS
Color space                              : YUV
Chroma subsampling                       : 4:2:0
Bit depth                                : 8 bits
Scan type                                : Progressive
Bits/(Pixel*Frame)                       : 0.396
Stream size                              : 5.22 GiB (89%)
Title                                    : Придорожній клуб / Придорожній заклад / Road House (1989)
Writing library                          : core 152 r2851kMod ba24899
Encoding settings                        : cabac=1 / ref=12 / deblock=1:-2:-2 / analyse=0x3:0x113 / me=umh / subme=11 / psy=1 / fade_compensate=0.00 / psy_rd=1.00:0.00 / mixed_ref=1 / me_range=64 / chroma_me=1 / trellis=2 / 8x8dct=1 / cqm=0 / deadzone=21,11 / fast_pskip=0 / chroma_qp_offset=-2 / threads=6 / lookahead_threads=1 / sliced_threads=0 / nr=0 / decimate=0 / interlaced=0 / bluray_compat=0 / constrained_intra=0 / bframes=16 / b_pyramid=2 / b_adapt=2 / b_bias=0 / direct=3 / weightb=1 / open_gop=0 / weightp=2 / keyint=240 / keyint_min=23 / scenecut=40 / intra_refresh=0 / rc_lookahead=40 / rc=2pass / mbtree=0 / bitrate=6551 / ratetol=1.0 / qcomp=0.60 / qpmin=0 / qpmax=69 / qpstep=4 / cplxblur=20.0 / qblur=0.5 / vbv_maxrate=50000 / vbv_bufsize=62500 / nal_hrd=none / filler=0 / ip_ratio=1.40 / pb_ratio=1.30 / aq=1:1.00
Language                                 : English
Default                                  : Yes
Forced                                   : No
Color range                              : Limited
Color primaries                          : BT.709
Transfer characteristics                 : BT.709
Matrix coefficients                      : BT.709

Audio #1
ID                                       : 2
Format                                   : AC-3
Format/Info                              : Audio Coding 3
Commercial name                          : Dolby Digital
Codec ID                                 : A_AC3
Duration                                 : 1 h 53 min
Bit rate mode                            : Constant
Bit rate                                 : 192 kb/s
Channel(s)                               : 2 channels
Channel layout                           : L R
Sampling rate                            : 48.0 kHz
Frame rate                               : 31.250 FPS (1536 SPF)
Bit depth                                : 16 bits
Compression mode                         : Lossy
Stream size                              : 157 MiB (3%)
Title                                    : / 2.0 Ch / 192 kbps / БЗ / ICTV
Language                                 : Ukrainian
Service kind                             : Complete Main
Default                                  : Yes
Forced                                   : Yes

Audio #2
ID                                       : 3
Format                                   : AC-3
Format/Info                              : Audio Coding 3
Commercial name                          : Dolby Digital
Codec ID                                 : A_AC3
Duration                                 : 1 h 54 min
Bit rate mode                            : Constant
Bit rate                                 : 192 kb/s
Channel(s)                               : 2 channels
Channel layout                           : L R
Sampling rate                            : 48.0 kHz
Frame rate                               : 31.250 FPS (1536 SPF)
Bit depth                                : 16 bits
Compression mode                         : Lossy
Stream size                              : 157 MiB (3%)
Title                                    : / 2.0 Ch / 192 kbps / БЗ / Kino
Language                                 : Ukrainian
Service kind                             : Complete Main
Default                                  : No
Forced                                   : No

Audio #3
ID                                       : 4
Format                                   : AC-3
Format/Info                              : Audio Coding 3
Commercial name                          : Dolby Digital
Codec ID                                 : A_AC3
Duration                                 : 1 h 54 min
Bit rate mode                            : Constant
Bit rate                                 : 448 kb/s
Channel(s)                               : 6 channels
Channel layout                           : L R C LFE Ls Rs
Sampling rate                            : 48.0 kHz
Frame rate                               : 31.250 FPS (1536 SPF)
Bit depth                                : 16 bits
Compression mode                         : Lossy
Stream size                              : 365 MiB (6%)
Title                                    : / 5.1 Ch / 640 kbps / Original
Language                                 : English
Service kind                             : Complete Main
Default                                  : No
Forced                                   : No

Text #1
ID                                       : 5
Format                                   : UTF-8
Codec ID                                 : S_TEXT/UTF8
Codec ID/Info                            : UTF-8 Plain Text
Duration                                 : 1 h 47 min
Bit rate                                 : 32 b/s
Count of elements                        : 903
Stream size                              : 25.9 KiB (0%)
Title                                    : Full
Language                                 : English
Default                                  : No
Forced                                   : No

Text #2
ID                                       : 6
Format                                   : UTF-8
Codec ID                                 : S_TEXT/UTF8
Codec ID/Info                            : UTF-8 Plain Text
Duration                                 : 1 h 48 min
Bit rate                                 : 34 b/s
Count of elements                        : 1016
Stream size                              : 27.7 KiB (0%)
Title                                    : SDH
Language                                 : English
Default                                  : No
Forced                                   : No

Text #3
ID                                       : 7
Format                                   : UTF-8
Codec ID                                 : S_TEXT/UTF8
Codec ID/Info                            : UTF-8 Plain Text
Duration                                 : 1 h 53 min
Bit rate                                 : 44 b/s
Count of elements                        : 1364
Stream size                              : 37.2 KiB (0%)
Title                                    : SDH, With Songs
Language                                 : English
Default                                  : No
Forced                                   : No

Menu
00:00:00.000                             : en:Opening Credits
00:04:00.275                             : en:Double Deuce
00:06:13.367                             : en:Welcome to Jasper
00:09:36.653                             : en:Paid to Play
00:12:26.489                             : en:Ten a Kiss
00:16:14.926                             : en:She's a Runner
00:21:48.634                             : en:3 Rules
00:25:33.150                             : en:Cleaning House
00:29:36.685                             : en:No Joke
00:32:13.050                             : en:Hello Red
00:36:31.808                             : en:Little Mistake
00:39:03.168                             : en:Pain Don't Hurt
00:41:56.549                             : en:Everybody Pays
00:45:51.909                             : en:New Town, Same Story
00:47:36.722                             : en:Sorry, We're Closed
00:50:53.002                             : en:Fan Club
00:53:46.091                             : en:Because of Me
00:57:35.320                             : en:Running Out of Booze
00:59:31.687                             : en:You Can Stay
01:06:18.051                             : en:Word Is...
01:10:46.569                             : en:It's a Lie
01:15:37.276                             : en:Things Heat Up
01:23:34.920                             : en:This is My Town
01:29:15.969                             : en:Prepare to Die
01:35:38.727                             : en:Coin Toss
01:40:32.478                             : en:Tails Again...
01:43:54.263                             : en:Trophy Room
01:49:14.708                             : en:End Credits
Світлини




Джерело: &
Особиста оцінка: 0 - не дивився


Срібний реліз (на рейтинг впливає 50% завантаженого)
 Трекер:    Зареєстрований   

Завантажити / скачати фільм українською



відео для новачків



 Зареєстрований:   2019-09-11 22:31
 Розмір:   5.88 GB 
 Оцінка фільму:   9.8/10 (Голосів: 5)
   
Ваш часовий пояс: GMT + 2 Години

Нова тема   Відповісти