Бетмен. Квадрологія / Batman. Quadrilogy (1989/1992/1995/1997) Remux 1080p Ukr/Eng | Sub Ukr/Eng

Нові коментарі

Нова тема   Відповісти
Автор Повідомлення
Anonymous 







2019-09-11 14:23  
Бетмен. Квадрологія / Batman. Quadrilogy (1989/1992/1995/1997) Remux 1080p Ukr/Eng | Sub Ukr/Eng

Бетмен. Квадрологія / Batman. Quadrilogy (1989/1992/1995/1997) Remux 1080p Ukr/Eng | Sub Ukr/Eng

1. 2. 3. 4.

1. Бетмен / Batman (1989) Remux 1080p Ukr/Eng | Sub Ukr/Eng
Бетмен / Batman (1989) Remux 1080p Ukr/Eng | Sub Ukr/Eng


Жанр: фантастика, бойовик, трилер, кримінальний
Країна: США, Велика Британія



Кінокомпанія: Warner Bros. Pictures, Guber-Peters Company, The, PolyGram Filmed Entertainment
Режисер: Тім Бартон
Актори: Майкл Кітон, Джек Ніколсон, Кім Бейсінгер, Роберт Вул, Пет Хінгл, Біллі Ді Вільямс, Майкл Гоф, Джек Паланс, Джері Холл, Трейсі Волтер

Сюжет:
Споконвічне протистояння добра і зла: божевільний, але чарівний лиходій Джокер - смертельна загроза для міста Готема. Безкомпромісний і загадковий Бетмен - його остання надія на порятунок. Тільки герой-рятівник не бажає розкривати своє справжнє ім'я, і не тільки зі скромності ... Але наполеглива журналістка, сповнена рішучості довідатися, кому із жителів Готема зобов'язані всім ...


Тривалість: 02:06:19
Якість: Remux 1080p
Відео:
кодек: VC-1
розмір кадру: 1920 x 1080
бітрейт: 22,3 Мб/с

Аудіо # 1:
мова: українська
переклад: багатоголосий закадровий
кодек: 2.0
бітрейт: 192 кб/с

Аудіо # 2:
мова: англійська
переклад: оригінал
кодек: TrueHD 5.1
бітрейт: 1684 кб/с

Аудіо # 3:
мова: англійська
переклад: коментарі
кодек: 2.0
бітрейт: 192 кб/с

Субтитри # 1:
мова: українська (Full),
тип: пререндерні
формат: *.Pgs

Субтитри # 2:
мова: англійська (Full),
тип: пререндерні
формат: *.Pgs


Info
Код:
General
Complete name                            : Batman. Quadrilogy (1989_1992_1995_1997) Blu-Ray Remux 1080p [ukr,eng] [ViDeO_Hurtom]\Batman (1989) Blu-Ray Remux 1080p [ukr,eng] [ViDeO_Hurtom].
Format                                   :
Format version                           : Version 4
File size                                : 21.6 GiB
Duration                                 : 2 h 6 min
Overall bit rate mode                    : Variable
Overall bit rate                         : 24.5 Mb/s
Movie name                               : Бетмен / Batman (1989)
Encoded date                             : UTC 2019-09-11 10:08:14
Writing application                      : v30.1.0 ('Forever And More') 64-bit
Writing library                          : libebml v1.3.6 + v1.4.9

Video
ID                                       : 1
Format                                   : VC-1
Format profile                           : [email protected]
Codec ID                                 : V_MS/VFW/FOURCC / WVC1
Codec ID/Hint                            : Microsoft
Duration                                 : 2 h 6 min
Bit rate                                 : 22.3 Mb/s
Width                                    : 1 920 pixels
Height                                   : 1 080 pixels
Display aspect ratio                     : 16:9
Frame rate mode                          : Constant
Frame rate                               : 23.976 (24000/1001) FPS
Color space                              : YUV
Chroma subsampling                       : 4:2:0
Bit depth                                : 8 bits
Scan type                                : Progressive
Compression mode                         : Lossy
Bits/(Pixel*Frame)                       : 0.449
Stream size                              : 19.7 GiB (91%)
Default                                  : Yes
Forced                                   : No

Audio #1
ID                                       : 2
Format                                   : AC-3
Format/Info                              : Audio Coding 3
Commercial name                          : Dolby Digital
Codec ID                                 : A_AC3
Duration                                 : 2 h 6 min
Bit rate mode                            : Constant
Bit rate                                 : 192 kb/s
Channel(s)                               : 2 channels
Channel layout                           : L R
Sampling rate                            : 48.0 kHz
Frame rate                               : 31.250 FPS (1536 SPF)
Bit depth                                : 16 bits
Compression mode                         : Lossy
Delay relative to video                  : 42 ms
Stream size                              : 173 MiB (1%)
Title                                    : , 2/0 (L,R) ch, ~192 kbps avg | ICTV
Language                                 : Ukrainian
Service kind                             : Complete Main
Default                                  : Yes
Forced                                   : No

Audio #2
ID                                       : 3
Format                                   : MLP FBA
Format/Info                              : Meridian Lossless Packing FBA
Commercial name                          : Dolby TrueHD
Codec ID                                 : A_TRUEHD
Duration                                 : 2 h 6 min
Bit rate mode                            : Variable
Bit rate                                 : 1 694 kb/s
Maximum bit rate                         : 3 069 kb/s
Channel(s)                               : 6 channels
Channel layout                           : L R C LFE Ls Rs
Sampling rate                            : 48.0 kHz
Frame rate                               : 1 200.000 FPS (40 SPF)
Compression mode                         : Lossless
Delay relative to video                  : 42 ms
Stream size                              : 1.50 GiB (7%)
Title                                    : Dolby TrueHD 5.1, ~1684 kbps avg
Language                                 : English
Default                                  : No
Forced                                   : No

Audio #3
ID                                       : 4
Format                                   : AC-3
Format/Info                              : Audio Coding 3
Commercial name                          : Dolby Digital
Codec ID                                 : A_AC3
Duration                                 : 2 h 6 min
Bit rate mode                            : Constant
Bit rate                                 : 192 kb/s
Channel(s)                               : 2 channels
Channel layout                           : L R
Sampling rate                            : 48.0 kHz
Frame rate                               : 31.250 FPS (1536 SPF)
Bit depth                                : 16 bits
Compression mode                         : Lossy
Delay relative to video                  : 42 ms
Stream size                              : 173 MiB (1%)
Title                                    : , 2/0 (L,R) ch, ~192 kbps avg |Commentary|
Language                                 : English
Service kind                             : Complete Main
Default                                  : No
Forced                                   : No

Text #1
ID                                       : 5
Format                                   : PGS
Muxing mode                              : zlib
Codec ID                                 : S_HDMV/PGS
Codec ID/Info                            : Picture based subtitle format used on BDs/HD-DVDs
Duration                                 : 2 h 5 min
Bit rate                                 : 17.5 kb/s
Count of elements                        : 2104
Stream size                              : 15.7 MiB (0%)
Title                                    : Full
Language                                 : Ukrainian
Default                                  : Yes
Forced                                   : No

Text #2
ID                                       : 6
Format                                   : PGS
Muxing mode                              : zlib
Codec ID                                 : S_HDMV/PGS
Codec ID/Info                            : Picture based subtitle format used on BDs/HD-DVDs
Duration                                 : 2 h 3 min
Bit rate                                 : 21.6 kb/s
Count of elements                        : 2216
Stream size                              : 19.1 MiB (0%)
Title                                    : Full
Language                                 : English
Default                                  : No
Forced                                   : No
Світлини


2. Бетмен повертається / Batman Returns (1992) Remux 1080p 2хUkr/Eng | Sub Ukr/Eng
Бетмен повертається / Batman Returns (1992) Remux 1080p 2хUkr/Eng | Sub Ukr/Eng


Жанр: фентезі, бойовик, трилер, кримінальний
Країна: США, Велика Британія



Кінокомпанія: Warner Bros., PolyGram Filmed Entertainment
Режисер: Тім Бартон / Tim Burton
Актори: Майкл Кітон / Michael Keaton, Денні ДеВіто / Danny DeVito, Мішель Пфайфер / Michelle Pfeiffer, Крістофер Вокен / Christopher Walken, Майкл Ґоф / Michael Gough, Ендрю Бринарскі / Andrew Bryniarski та інші

Сюжет:
Ґотему загрожують два страшних злочинці: ексцентричний і лиховісний Пінгвін і граціозна й таємнича Жінка-кішка. Чи зможе Бетмен впоратися із двома грізними супротивниками одночасно? Тим більше, що один з них має намір стати мером, а інша відчуває романтичний потяг до Ґотемського героя.


Тривалість: 02:06:28
Якість: Remux 1080p

Відео:
кодек: VC-1
розмір кадру: 1920 x 1080
бітрейт: 22,5 Мб/с

Аудіо # 1:
мова: українська
переклад: багатоголосий закадровий
кодек: 2.0
бітрейт: 192 кб/с

Аудіо # 2:
мова: українська
переклад: двоголосий закадровий
кодек: 2.0
бітрейт: 192 кб/с

Аудіо # 3:
мова: англійська
переклад: оригінал
кодек: TrueHD 5.1
бітрейт: 1684 кб/с

Аудіо # 3:
мова: англійська
переклад: коментарі
кодек: 2.0
бітрейт: 192 кб/с

Субтитри # 1:
мова: українська (Full),
тип: пререндерні
формат: *.Pgs

Субтитри # 2:
мова: англійська (Full),
тип: пререндерні
формат: *.Pgs


Info
Код:
General
Complete name                            : Batman. Quadrilogy (1989_1992_1995_1997) Blu-Ray Remux 1080p [ukr,eng] [ViDeO_Hurtom]\Batman Returns (1992) Blu-Ray Remux 1080p [ukr,eng] [ViDeO_Hurtom].
Format                                   :
Format version                           : Version 4
File size                                : 22.0 GiB
Duration                                 : 2 h 6 min
Overall bit rate mode                    : Variable
Overall bit rate                         : 24.9 Mb/s
Movie name                               : Бетмен повертається / Batman Returns (1992)
Encoded date                             : UTC 2019-09-11 10:17:03
Writing application                      : v30.1.0 ('Forever And More') 64-bit
Writing library                          : libebml v1.3.6 + v1.4.9

Video
ID                                       : 1
Format                                   : VC-1
Format profile                           : [email protected]
Codec ID                                 : V_MS/VFW/FOURCC / WVC1
Codec ID/Hint                            : Microsoft
Duration                                 : 2 h 6 min
Bit rate                                 : 22.5 Mb/s
Width                                    : 1 920 pixels
Height                                   : 1 080 pixels
Display aspect ratio                     : 16:9
Frame rate mode                          : Constant
Frame rate                               : 23.976 (24000/1001) FPS
Color space                              : YUV
Chroma subsampling                       : 4:2:0
Bit depth                                : 8 bits
Scan type                                : Progressive
Compression mode                         : Lossy
Bits/(Pixel*Frame)                       : 0.453
Stream size                              : 19.9 GiB (91%)
Default                                  : Yes
Forced                                   : No

Audio #1
ID                                       : 2
Format                                   : AC-3
Format/Info                              : Audio Coding 3
Commercial name                          : Dolby Digital
Codec ID                                 : A_AC3
Duration                                 : 2 h 6 min
Bit rate mode                            : Constant
Bit rate                                 : 192 kb/s
Channel(s)                               : 2 channels
Channel layout                           : L R
Sampling rate                            : 48.0 kHz
Frame rate                               : 31.250 FPS (1536 SPF)
Bit depth                                : 16 bits
Compression mode                         : Lossy
Delay relative to video                  : 42 ms
Stream size                              : 174 MiB (1%)
Title                                    : , 2/0 (L,R) ch, ~192 kbps avg | ICTV
Language                                 : Ukrainian
Service kind                             : Complete Main
Default                                  : Yes
Forced                                   : No

Audio #2
ID                                       : 3
Format                                   : AC-3
Format/Info                              : Audio Coding 3
Commercial name                          : Dolby Digital
Codec ID                                 : A_AC3
Duration                                 : 2 h 6 min
Bit rate mode                            : Constant
Bit rate                                 : 192 kb/s
Channel(s)                               : 2 channels
Channel layout                           : L R
Sampling rate                            : 48.0 kHz
Frame rate                               : 31.250 FPS (1536 SPF)
Bit depth                                : 16 bits
Compression mode                         : Lossy
Delay relative to video                  : 42 ms
Stream size                              : 174 MiB (1%)
Title                                    : , 2/0 (L,R) ch, ~192 kbps avg | 1+1
Language                                 : Ukrainian
Service kind                             : Complete Main
Default                                  : No
Forced                                   : No

Audio #3
ID                                       : 4
Format                                   : MLP FBA
Format/Info                              : Meridian Lossless Packing FBA
Commercial name                          : Dolby TrueHD
Codec ID                                 : A_TRUEHD
Duration                                 : 2 h 6 min
Bit rate mode                            : Variable
Bit rate                                 : 1 684 kb/s
Maximum bit rate                         : 2 967 kb/s
Channel(s)                               : 6 channels
Channel layout                           : L R C LFE Ls Rs
Sampling rate                            : 48.0 kHz
Frame rate                               : 1 200.000 FPS (40 SPF)
Compression mode                         : Lossless
Delay relative to video                  : 42 ms
Stream size                              : 1.49 GiB (7%)
Title                                    : Dolby TrueHD 5.1, ~1684 kbps avg
Language                                 : English
Default                                  : No
Forced                                   : No

Audio #4
ID                                       : 5
Format                                   : AC-3
Format/Info                              : Audio Coding 3
Commercial name                          : Dolby Digital
Codec ID                                 : A_AC3
Duration                                 : 2 h 6 min
Bit rate mode                            : Constant
Bit rate                                 : 192 kb/s
Channel(s)                               : 2 channels
Channel layout                           : L R
Sampling rate                            : 48.0 kHz
Frame rate                               : 31.250 FPS (1536 SPF)
Bit depth                                : 16 bits
Compression mode                         : Lossy
Delay relative to video                  : 42 ms
Stream size                              : 174 MiB (1%)
Title                                    : , 2/0 (L,R) ch, ~192 kbps avg |Commentary|
Language                                 : English
Service kind                             : Complete Main
Default                                  : No
Forced                                   : No

Text #1
ID                                       : 6
Format                                   : PGS
Muxing mode                              : zlib
Codec ID                                 : S_HDMV/PGS
Codec ID/Info                            : Picture based subtitle format used on BDs/HD-DVDs
Duration                                 : 2 h 6 min
Bit rate                                 : 21.0 kb/s
Count of elements                        : 2056
Stream size                              : 18.9 MiB (0%)
Title                                    : Full
Language                                 : Ukrainian
Default                                  : Yes
Forced                                   : No

Text #2
ID                                       : 7
Format                                   : PGS
Muxing mode                              : zlib
Codec ID                                 : S_HDMV/PGS
Codec ID/Info                            : Picture based subtitle format used on BDs/HD-DVDs
Duration                                 : 2 h 5 min
Bit rate                                 : 23.3 kb/s
Count of elements                        : 2272
Stream size                              : 21.0 MiB (0%)
Title                                    : Full
Language                                 : English
Default                                  : No
Forced                                   : No
Світлини


3. Бетмен Назавжди / Batman Forever (1995) Remux 1080p Ukr/Eng | Sub Eng
Бетмен Назавжди / Batman Forever (1995) Remux 1080p Ukr/Eng | Sub Eng


Жанр: бойовик, трилер, фентезі
Країна: США



Кінокомпанія: Warner Bros., PolyGram Filmed Entertainment
Режисер: Джоел Шумахер / Joel Schumacher
Актори: Вел Кілмер / Val Kilmer, Томмі Лі Джонс / Tommy Lee Jones, Джим Керрі / Jim Carrey, Ніколь Кідман / Nicole Kidman, Кріс О'Доннелл / Chris O'Donnell, Майкл Ґоф / Michael Gough, Пет Гінґл / Pat Hingle, Дрю Беррімор / Drew Barrymore, Дебі Мейзар / Debi Mazar, Елізабет Сендерс / Elizabeth Sanders та інші

Сюжет:
Полетимо назустріч пригодам на крилах кажана! Зберіться з духом і приготуйтеся: вас чекають захопливі пригоди за участю Вела Кілмера, Томмі Лі Джонса, Джима Кері, Ніколь Кідман і Кріса О'Доннелла в третьому захопливому фільмі про Бетмена. Два нові лиходії тероризують Ґотем-сіті: дволикий і загадковий. Бетмен разом зі своїм напарником як завжди наводять лад в місті.


Тривалість: 02:01:35
Якість: Remux 1080p

Відео:
кодек: VC-1
розмір кадру: 1920 x 1080
бітрейт: 21,6 Мб/с

Аудіо # 1:
мова: українська
переклад: багатоголосий закадровий
кодек: 2.0
бітрейт: 192 кб/с

Аудіо # 2:
мова: англійська
переклад: оригінал
кодек: TrueHD 5.1
бітрейт: 1879 кб/с

Аудіо # 3:
мова: англійська
переклад: коментарі
кодек: 2.0
бітрейт: 192 кб/с

Субтитри # 1-2:
мова: англійська (Full, SDH),
тип: пререндерні
формат: *.Pgs


Info
Код:
General
Complete name                            : Batman. Quadrilogy (1989_1992_1995_1997) Blu-Ray Remux 1080p [ukr,eng] [ViDeO_Hurtom]\Batman Forever (1995) Blu-Ray Remux 1080p [ukr,eng] [ViDeO_Hurtom].
Format                                   :
Format version                           : Version 4
File size                                : 20.4 GiB
Duration                                 : 2 h 1 min
Overall bit rate mode                    : Variable
Overall bit rate                         : 24.0 Mb/s
Movie name                               : Бетмен Назавжди / Batman Forever (1995)
Encoded date                             : UTC 2019-09-11 10:28:49
Writing application                      : v30.1.0 ('Forever And More') 64-bit
Writing library                          : libebml v1.3.6 + v1.4.9

Video
ID                                       : 1
Format                                   : VC-1
Format profile                           : [email protected]
Codec ID                                 : V_MS/VFW/FOURCC / WVC1
Codec ID/Hint                            : Microsoft
Duration                                 : 2 h 1 min
Bit rate                                 : 21.6 Mb/s
Width                                    : 1 920 pixels
Height                                   : 1 080 pixels
Display aspect ratio                     : 16:9
Frame rate mode                          : Constant
Frame rate                               : 23.976 (24000/1001) FPS
Color space                              : YUV
Chroma subsampling                       : 4:2:0
Bit depth                                : 8 bits
Scan type                                : Progressive
Compression mode                         : Lossy
Bits/(Pixel*Frame)                       : 0.435
Stream size                              : 18.4 GiB (90%)
Default                                  : Yes
Forced                                   : No

Audio #1
ID                                       : 2
Format                                   : AC-3
Format/Info                              : Audio Coding 3
Commercial name                          : Dolby Digital
Codec ID                                 : A_AC3
Duration                                 : 2 h 1 min
Bit rate mode                            : Constant
Bit rate                                 : 192 kb/s
Channel(s)                               : 2 channels
Channel layout                           : L R
Sampling rate                            : 48.0 kHz
Frame rate                               : 31.250 FPS (1536 SPF)
Bit depth                                : 16 bits
Compression mode                         : Lossy
Delay relative to video                  : 42 ms
Stream size                              : 167 MiB (1%)
Title                                    : , 2/0 (L,R) ch, ~192 kbps avg | ICTV
Language                                 : Ukrainian
Service kind                             : Complete Main
Default                                  : Yes
Forced                                   : No

Audio #2
ID                                       : 3
Format                                   : MLP FBA
Format/Info                              : Meridian Lossless Packing FBA
Commercial name                          : Dolby TrueHD
Codec ID                                 : A_TRUEHD
Duration                                 : 2 h 1 min
Bit rate mode                            : Variable
Bit rate                                 : 1 879 kb/s
Maximum bit rate                         : 3 465 kb/s
Channel(s)                               : 6 channels
Channel layout                           : L R C LFE Ls Rs
Sampling rate                            : 48.0 kHz
Frame rate                               : 1 200.000 FPS (40 SPF)
Compression mode                         : Lossless
Delay relative to video                  : 42 ms
Stream size                              : 1.60 GiB (8%)
Title                                    : Dolby TrueHD 5.1, ~1879 kbps avg
Language                                 : English
Default                                  : No
Forced                                   : No

Audio #3
ID                                       : 4
Format                                   : AC-3
Format/Info                              : Audio Coding 3
Commercial name                          : Dolby Digital
Codec ID                                 : A_AC3
Duration                                 : 2 h 1 min
Bit rate mode                            : Constant
Bit rate                                 : 192 kb/s
Channel(s)                               : 2 channels
Channel layout                           : L R
Sampling rate                            : 48.0 kHz
Frame rate                               : 31.250 FPS (1536 SPF)
Bit depth                                : 16 bits
Compression mode                         : Lossy
Delay relative to video                  : 42 ms
Stream size                              : 167 MiB (1%)
Title                                    : , 2/0 (L,R) ch, ~192 kbps avg |Commentary|
Language                                 : English
Service kind                             : Complete Main
Default                                  : No
Forced                                   : No

Text #1
ID                                       : 5
Format                                   : PGS
Muxing mode                              : zlib
Codec ID                                 : S_HDMV/PGS
Codec ID/Info                            : Picture based subtitle format used on BDs/HD-DVDs
Duration                                 : 1 h 59 min
Bit rate                                 : 22.3 kb/s
Count of elements                        : 2208
Stream size                              : 19.1 MiB (0%)
Title                                    : Full
Language                                 : English
Default                                  : Yes
Forced                                   : No

Text #2
ID                                       : 6
Format                                   : PGS
Muxing mode                              : zlib
Codec ID                                 : S_HDMV/PGS
Codec ID/Info                            : Picture based subtitle format used on BDs/HD-DVDs
Duration                                 : 2 h 0 min
Bit rate                                 : 26.9 kb/s
Count of elements                        : 2948
Stream size                              : 23.1 MiB (0%)
Title                                    : SDH
Language                                 : English
Default                                  : No
Forced                                   : No
Світлини


4. Бетмен і Робін / Batman & Robin (1997) Remux 1080p 2xUkr/Eng | Sub Eng
Бетмен і Робін / Batman & Robin (1997) Remux 1080p 2xUkr/Eng | Sub Eng


Жанр: бойовик, кримінальний, трилер
Країна: США



Кінокомпанія: Warner Bros., PolyGram Filmed Entertainment
Режисер: Джоел Шумахер / Joel Schumacher
Актори: Арнольд Шварценеґґер / Arnold Schwarzenegger, Джордж Клуні / George Clooney, Кріс О'Доннелл / Chris O'Donnell, Ума Турман / Uma Thurman, Алісія Сільверстоун / Alicia Silverstone, Майкл Ґоф / Michael Gough, Пет Гінґл / Pat Hingle, Джон Ґловер / John Glover, Ель Макферсон / Elle Macpherson, Вівіка А. Фокс / Vivica A. Fox та інші

Сюжет:
Просто мороз по шкірі: невже місто Ґотем буде заморожено? Темний Лицар намагається застосувати свою найстрашнішу зброю: безсердечного і холоднокровного містера Фріза і підступну Отруйний Плющ.

Бетмену доведеться захищати не тільки місто Ґотем. По-юнацькому безрозсудне бажання боротися зі Злом весь час приносить його другові Робіну нові неприємності.


Тривалість: 02:04:53
Якість: Remux 1080p

Відео:
кодек: VC-1
розмір кадру: 1920 x 1080
бітрейт: 24 Мб/с

Аудіо # 1:
мова: українська
переклад: двоголосий закадровий
кодек: 2.0
бітрейт: 192 кб/с

Аудіо # 2:
мова: українська
переклад: багатоголосий закадровий
кодек: 2.0
бітрейт: 192 кб/с

Аудіо # 3:
мова: англійська
переклад: оригінал
кодек: TrueHD 5.1
бітрейт: 1915 кб/с

Аудіо # 4:
мова: англійська
переклад: коментарі
кодек: 2.0
бітрейт: 192 кб/с

Субтитри # 1-2:
мова: англійська (Full, SDH),
тип: пререндерні
формат: *.Pgs


Info
Код:
General
Complete name                            : Batman. Quadrilogy (1989_1992_1995_1997) Blu-Ray Remux 1080p [ukr,eng] [ViDeO_Hurtom]\Batman & Robin (1997) Blu-Ray Remux 1080p [ukr,eng] [ViDeO_Hurtom].
Format                                   :
Format version                           : Version 4
File size                                : 23.2 GiB
Duration                                 : 2 h 4 min
Overall bit rate mode                    : Variable
Overall bit rate                         : 26.6 Mb/s
Movie name                               : Бетмен і Робін / Batman & Robin (1997)
Encoded date                             : UTC 2019-09-11 10:52:47
Writing application                      : v30.1.0 ('Forever And More') 64-bit
Writing library                          : libebml v1.3.6 + v1.4.9

Video
ID                                       : 1
Format                                   : VC-1
Format profile                           : [email protected]
Codec ID                                 : V_MS/VFW/FOURCC / WVC1
Codec ID/Hint                            : Microsoft
Duration                                 : 2 h 4 min
Bit rate                                 : 24.0 Mb/s
Width                                    : 1 920 pixels
Height                                   : 1 080 pixels
Display aspect ratio                     : 16:9
Frame rate mode                          : Constant
Frame rate                               : 23.976 (24000/1001) FPS
Color space                              : YUV
Chroma subsampling                       : 4:2:0
Bit depth                                : 8 bits
Scan type                                : Progressive
Compression mode                         : Lossy
Bits/(Pixel*Frame)                       : 0.483
Stream size                              : 21.0 GiB (90%)
Default                                  : Yes
Forced                                   : No

Audio #1
ID                                       : 2
Format                                   : AC-3
Format/Info                              : Audio Coding 3
Commercial name                          : Dolby Digital
Codec ID                                 : A_AC3
Duration                                 : 2 h 4 min
Bit rate mode                            : Constant
Bit rate                                 : 192 kb/s
Channel(s)                               : 2 channels
Channel layout                           : L R
Sampling rate                            : 48.0 kHz
Frame rate                               : 31.250 FPS (1536 SPF)
Bit depth                                : 16 bits
Compression mode                         : Lossy
Delay relative to video                  : 42 ms
Stream size                              : 172 MiB (1%)
Title                                    : , 2/0 (L,R) ch, ~192 kbps avg | ICTV
Language                                 : Ukrainian
Service kind                             : Complete Main
Default                                  : Yes
Forced                                   : No

Audio #2
ID                                       : 3
Format                                   : AC-3
Format/Info                              : Audio Coding 3
Commercial name                          : Dolby Digital
Codec ID                                 : A_AC3
Duration                                 : 2 h 4 min
Bit rate mode                            : Constant
Bit rate                                 : 192 kb/s
Channel(s)                               : 2 channels
Channel layout                           : L R
Sampling rate                            : 48.0 kHz
Frame rate                               : 31.250 FPS (1536 SPF)
Bit depth                                : 16 bits
Compression mode                         : Lossy
Stream size                              : 172 MiB (1%)
Title                                    : , 2/0 (L,R) ch, ~192 kbps avg | 1+1
Language                                 : Ukrainian
Service kind                             : Complete Main
Default                                  : No
Forced                                   : No

Audio #3
ID                                       : 4
Format                                   : MLP FBA
Format/Info                              : Meridian Lossless Packing FBA
Commercial name                          : Dolby TrueHD
Codec ID                                 : A_TRUEHD
Duration                                 : 2 h 4 min
Bit rate mode                            : Variable
Bit rate                                 : 1 915 kb/s
Maximum bit rate                         : 3 168 kb/s
Channel(s)                               : 6 channels
Channel layout                           : L R C LFE Ls Rs
Sampling rate                            : 48.0 kHz
Frame rate                               : 1 200.000 FPS (40 SPF)
Compression mode                         : Lossless
Delay relative to video                  : 42 ms
Stream size                              : 1.67 GiB (7%)
Title                                    : Dolby TrueHD 5.1, ~1915 kbps avg
Language                                 : English
Default                                  : No
Forced                                   : No

Audio #4
ID                                       : 5
Format                                   : AC-3
Format/Info                              : Audio Coding 3
Commercial name                          : Dolby Digital
Codec ID                                 : A_AC3
Duration                                 : 2 h 4 min
Bit rate mode                            : Constant
Bit rate                                 : 192 kb/s
Channel(s)                               : 2 channels
Channel layout                           : L R
Sampling rate                            : 48.0 kHz
Frame rate                               : 31.250 FPS (1536 SPF)
Bit depth                                : 16 bits
Compression mode                         : Lossy
Delay relative to video                  : 42 ms
Stream size                              : 172 MiB (1%)
Title                                    : , 2/0 (L,R) ch, ~192 kbps avg |Commentary|
Language                                 : English
Service kind                             : Complete Main
Default                                  : No
Forced                                   : No

Text #1
ID                                       : 6
Format                                   : PGS
Muxing mode                              : zlib
Codec ID                                 : S_HDMV/PGS
Codec ID/Info                            : Picture based subtitle format used on BDs/HD-DVDs
Duration                                 : 2 h 2 min
Bit rate                                 : 20.9 kb/s
Count of elements                        : 2302
Stream size                              : 18.3 MiB (0%)
Title                                    : Full
Language                                 : English
Default                                  : Yes
Forced                                   : No

Text #2
ID                                       : 7
Format                                   : PGS
Muxing mode                              : zlib
Codec ID                                 : S_HDMV/PGS
Codec ID/Info                            : Picture based subtitle format used on BDs/HD-DVDs
Duration                                 : 2 h 2 min
Bit rate                                 : 23.9 kb/s
Count of elements                        : 2564
Stream size                              : 21.0 MiB (0%)
Title                                    : SDH
Language                                 : English
Default                                  : No
Forced                                   : No
Світлини


Джерело: &
Особиста оцінка: 0 - не дивився



Золотий реліз (завантажене не впливає на рейтинг)
 Трекер:    Зареєстрований   

Завантажити / скачати фільм українською



відео для новачків



 Зареєстрований:   2019-09-11 16:00
 Розмір:   87.17 GB 
 Оцінка фільму:   10/10 (Голосів: 9)
   
bot 
робот


З нами з: 30.09.07
Востаннє: 26.05.05
Повідомлень: 22091

2019-09-11 15:59  
Тему перенесено з Анонси релізів до форуму Фільми в HD


antik_2008

ivovka44 
Новенький


З нами з: 21.07.14
Востаннє: 19.09.19
Повідомлень: 1

2019-09-12 09:42  
Станьте хто небудь на роздачу. Пожалуйста!
Ваш часовий пояс: GMT + 2 Години

Нова тема   Відповісти