Князь темряви / Prince of Darkness (1987) [Remastered] 720p Ukr/Eng | Sub Eng

Нові коментарі

Нова тема   Відповісти
Автор Повідомлення
Anonymous 







2019-09-10 22:10  
Князь темряви / Prince of Darkness (1987) [Remastered] 720p Ukr/Eng | Sub Eng

Князь темряви / Prince of Darkness (1987) [Remastered] 720p Ukr/Eng | Sub Eng


Жанр: жахи, трилер
Країна: США
Кінокомпанія: Alive Films, Larry Franco Productions
Режисер: Джон Карпентер
Актори: Дональд Плезенс, Джеймісон Паркер, Віктор Вонг, Ліза Блонт, Денніс Дун, Сьюзен Бленчард, Енн Марі Говард, Еліс Купер

Сюжет:
Група вчених-дослідників під час вивчення занедбаної церкви знаходить незвичайну посудину. За допомогою радіографії їм вдається визначити, що посудині приблизно 7 мільйонів років і, що саме цікаве, її можна відкрити тільки зсередини. У ній перебуває якась незрозуміла субстанція: рідкий алмаз, створений якоюсь таємничою силою.

У прадавньому рукописі говориться, що в цьому алмазі спочиває сам Сатана або його дух. У результаті експериментів диявольська сила, вивільнившись із посудини й розсіявшись у просторі, починає вселятися в дослідників, перетворюючи їх у рабів Сатани.


Тривалість: 01:41:22
Якість: [Remastered]

Відео:
кодек:
розмір кадру: 1280 x 544
бітрейт: 8751 кб/с

Аудіо # 1:
мова: українська
переклад: двоголосий закадровий
кодек: AC-3 2.0
бітрейт: 192 кб/с

Аудіо # 2:
мова: англійська
переклад: оригінал
кодек: AC-3 5.1
бітрейт: 448 кб/с

Субтитри # 1-2: (Full, SDH)
мова: англійська
тип: програмні (м'які)
формат: *.srt


Info
Код:
General
Unique ID                                : 232363659108889826918732301235084261933 (0xAECF9CE771126552AD83EF59339EFA2D)
Complete name                            : Prince of Darkness (1987) [Remastered] 720p [UKR_ENG] [Hurtom].
Format                                   :
Format version                           : Version 4
File size                                : 6.65 GiB
Duration                                 : 1 h 41 min
Overall bit rate                         : 9 386 kb/s
Movie name                               : Князь темряви / Prince of Darkness (1987) [Remastered]
Encoded date                             : UTC 2019-09-10 18:56:47
Writing application                      : v20.0.0 ('I Am The Sun') 64-bit
Writing library                          : libebml v1.3.5 + v1.4.8
Cover                                    : Yes
Attachments                              : Cover.jpg

Video
ID                                       : 1
Format                                   : AVC
Format/Info                              : Advanced Video Codec
Format profile                           : [email protected]
Format settings                          : CABAC / 12 Ref Frames
Format settings, CABAC                   : Yes
Format settings, Reference frames        : 12 frames
Codec ID                                 : V_MPEG4/ISO/AVC
Duration                                 : 1 h 41 min
Bit rate                                 : 8 751 kb/s
Width                                    : 1 280 pixels
Height                                   : 544 pixels
Display aspect ratio                     : 2.35:1
Frame rate mode                          : Constant
Frame rate                               : 24.000 FPS
Color space                              : YUV
Chroma subsampling                       : 4:2:0
Bit depth                                : 8 bits
Scan type                                : Progressive
Bits/(Pixel*Frame)                       : 0.524
Stream size                              : 6.19 GiB (93%)
Title                                    : Князь темряви / Prince of Darkness (1987) [Remastered]
Writing library                          : core 152 r2851kMod ba24899
Encoding settings                        : cabac=1 / ref=12 / deblock=1:-2:-2 / analyse=0x3:0x113 / me=umh / subme=11 / psy=1 / fade_compensate=0.00 / psy_rd=1.00:0.00 / mixed_ref=1 / me_range=48 / chroma_me=1 / trellis=2 / 8x8dct=1 / cqm=0 / deadzone=21,11 / fast_pskip=0 / chroma_qp_offset=-2 / threads=6 / lookahead_threads=1 / sliced_threads=0 / nr=0 / decimate=0 / interlaced=0 / bluray_compat=0 / constrained_intra=0 / bframes=16 / b_pyramid=2 / b_adapt=2 / b_bias=0 / direct=3 / weightb=1 / open_gop=0 / weightp=2 / keyint=240 / keyint_min=24 / scenecut=40 / intra_refresh=0 / rc_lookahead=40 / rc=2pass / mbtree=0 / bitrate=8751 / ratetol=1.0 / qcomp=0.60 / qpmin=0 / qpmax=69 / qpstep=4 / cplxblur=20.0 / qblur=0.5 / vbv_maxrate=50000 / vbv_bufsize=62500 / nal_hrd=none / filler=0 / ip_ratio=1.25 / pb_ratio=1.30 / aq=3:0.70
Language                                 : English
Default                                  : Yes
Forced                                   : No
Color range                              : Limited
Color primaries                          : BT.709
Transfer characteristics                 : BT.709
Matrix coefficients                      : BT.709

Audio #1
ID                                       : 2
Format                                   : AC-3
Format/Info                              : Audio Coding 3
Commercial name                          : Dolby Digital
Codec ID                                 : A_AC3
Duration                                 : 1 h 41 min
Bit rate mode                            : Constant
Bit rate                                 : 192 kb/s
Channel(s)                               : 2 channels
Channel layout                           : L R
Sampling rate                            : 48.0 kHz
Frame rate                               : 31.250 FPS (1536 SPF)
Bit depth                                : 16 bits
Compression mode                         : Lossy
Stream size                              : 139 MiB (2%)
Title                                    : / 2.0 Ch / 192 kbps / ДЗ / Kino
Language                                 : Ukrainian
Service kind                             : Complete Main
Default                                  : Yes
Forced                                   : Yes

Audio #2
ID                                       : 3
Format                                   : AC-3
Format/Info                              : Audio Coding 3
Commercial name                          : Dolby Digital
Codec ID                                 : A_AC3
Duration                                 : 1 h 41 min
Bit rate mode                            : Constant
Bit rate                                 : 448 kb/s
Channel(s)                               : 6 channels
Channel layout                           : L R C LFE Ls Rs
Sampling rate                            : 48.0 kHz
Frame rate                               : 31.250 FPS (1536 SPF)
Bit depth                                : 16 bits
Compression mode                         : Lossy
Stream size                              : 325 MiB (5%)
Title                                    : / 5.1 Ch / 448 kbps / Original
Language                                 : English
Service kind                             : Complete Main
Default                                  : No
Forced                                   : No

Text #1
ID                                       : 4
Format                                   : UTF-8
Codec ID                                 : S_TEXT/UTF8
Codec ID/Info                            : UTF-8 Plain Text
Duration                                 : 1 h 35 min
Bit rate                                 : 38 b/s
Count of elements                        : 789
Stream size                              : 27.0 KiB (0%)
Title                                    : Full
Language                                 : English
Default                                  : No
Forced                                   : No

Text #2
ID                                       : 5
Format                                   : UTF-8
Codec ID                                 : S_TEXT/UTF8
Codec ID/Info                            : UTF-8 Plain Text
Duration                                 : 1 h 37 min
Bit rate                                 : 40 b/s
Count of elements                        : 897
Stream size                              : 29.2 KiB (0%)
Title                                    : SDH
Language                                 : English
Default                                  : No
Forced                                   : No

Menu
00:00:00.000                             : uk:01. Вступ
00:08:11.670                             : uk:02. Книга сплячих
00:14:56.737                             : uk:03. Висновки
00:23:12.337                             : uk:04. Стара церква
00:32:40.762                             : uk:05. Нез'ясовність
00:39:34.287                             : uk:06. Воно прокидається
00:47:48.904                             : uk:07. День істини
00:57:13.612                             : uk:08. Попередження
01:05:01.245                             : uk:09. Посланець смерті
01:13:15.887                             : uk:10. Перешкода
01:21:17.062                             : uk:11. Вища сила
01:34:08.179                             : uk:12. Завершення
01:38:17.579                             : uk:13. Фінальні титри
Світлини




Джерело: &
Особиста оцінка: 0 - не дивився


Срібний реліз (на рейтинг впливає 50% завантаженого)
 Трекер:    Зареєстрований   

Завантажити / скачати фільм українською



відео для новачків



 Зареєстрований:   2019-09-10 22:10
 Розмір:   6.65 GB 
 Оцінка фільму:   7.5/10 (Голосів: 6)
   
Інші релізи
   Князь темряви / Prince of Darkness (1987) Ukr/Eng drop_plz  1 / 0   1.86 GB   2018-07-12 19:31 
   Князь темряви / Prince of Darkness (1987) rooster  2 / 0   1.46 GB   2011-01-23 00:11 
hetzendorf 
Попереджень: 2
Попереджень: 2 


З нами з: 23.07.15
Востаннє: 28.09.20
Повідомлень: 2876

2020-01-26 01:54  
Виявляється, колись я це бачив, але геть забув. Не дивно, бо це певно один із найслабших фільмів Карпентера.
4/10

Ваш часовий пояс: GMT + 2 Години

Нова тема   Відповісти