Дитячі ігри / Child's Play (2019) 1080p Ukr/Eng | Sub Eng

Нові коментарі

Нова тема   Відповісти
Автор Повідомлення
Anonymous 







2019-09-10 12:59  
Дитячі ігри / Child's Play (2019) 1080p Ukr/Eng | Sub Eng




Альтернативний постер

«Твій найкращий друг...до самої смерті»


Жанр: жахи
Країна: Канада, США



Кінокомпанія: Orion Pictures, Bron Creative, Creative Wealth Media Finance
Режисер: Ларс Клевберг
Актори: Обрі Плаза, Брайан Тайрі Генрі, Марк Хемілл, Тім Метісон, Гебріел Бейтман, Девід Льюіс, Карліс Бурк

Сюжет:
Мама дарує синові на день народження нову популярну ляльку, не підозрюючи, що ця лялька незабаром оживе і влаштує аж ніяк не іграшкову різанину.


Тривалість: 01:30:00
Якість: 1080p

Відео:
кодек:
розмір кадру: 1920x806
бітрейт: 12,4 Mб/с

Аудіо # 1:
мова: українська
переклад: професійний дубльований
кодек: 2.0
бітрейт: 192 кб/с

Аудіо # 2:
мова: англійська
переклад: оригінал
кодек: 5.1
бітрейт: 640 кб/с

Субтитри: (Full, SDH)
мова: англійська
тип: програмні (м'які)
формат: *.srt
Info
Код:
General
Complete name                            : Child's Play (2019) 1080p [Ukr_Eng] [Video_Hurtom].
Format                                   :
Format version                           : Version 4
File size                                : 8.34 GiB
Duration                                 : 1 h 30 min
Overall bit rate                         : 13.3 Mb/s
Movie name                               : Child's Play (2019) 1080p [Ukr_Eng] [Video_Hurtom]
Encoded date                             : UTC 2019-09-17 06:23:28
Writing application                      : v30.1.0 ('Forever And More') 64-bit
Writing library                          : libebml v1.3.6 + v1.4.9
Cover                                    : Yes
Attachments                              : cover.jpg

Video
ID                                       : 1
Format                                   : AVC
Format/Info                              : Advanced Video Codec
Format profile                           : [email protected]
Format settings                          : CABAC / 5 Ref Frames
Format settings, CABAC                   : Yes
Format settings, RefFrames               : 5 frames
Codec ID                                 : V_MPEG4/ISO/AVC
Duration                                 : 1 h 30 min
Bit rate                                 : 12.4 Mb/s
Width                                    : 1 920 pixels
Height                                   : 806 pixels
Display aspect ratio                     : 2.40:1
Frame rate mode                          : Constant
Frame rate                               : 23.976 (24000/1001) FPS
Color space                              : YUV
Chroma subsampling                       : 4:2:0
Bit depth                                : 8 bits
Scan type                                : Progressive
Bits/(Pixel*Frame)                       : 0.335
Stream size                              : 7.81 GiB (94%)
Title                                    : Encoded by seleZen
Writing library                          : core 148 r2705kMod 3f5ed56
Encoding settings                        : cabac=1 / ref=5 / deblock=1:-2:-2 / analyse=0x3:0x113 / me=umh / subme=11 / psy=1 / fade_compensate=0.00 / psy_rd=1.00:0.00 / mixed_ref=1 / me_range=32 / chroma_me=1 / trellis=2 / 8x8dct=1 / cqm=0 / deadzone=21,11 / fast_pskip=0 / chroma_qp_offset=-2 / threads=24 / lookahead_threads=6 / sliced_threads=0 / nr=0 / decimate=0 / interlaced=0 / bluray_compat=0 / constrained_intra=0 / fgo=0 / bframes=10 / b_pyramid=2 / b_adapt=2 / b_bias=0 / direct=3 / weightb=1 / open_gop=0 / weightp=2 / keyint=240 / keyint_min=23 / scenecut=40 / intra_refresh=0 / rc_lookahead=50 / rc=2pass / mbtree=0 / bitrate=12438 / ratetol=1.0 / qcomp=0.60 / qpmin=0 / qpmax=51 / qpstep=4 / cplxblur=20.0 / qblur=0.5 / vbv_maxrate=50000 / vbv_bufsize=62500 / nal_hrd=none / filler=0 / ip_ratio=1.40 / pb_ratio=1.30 / aq=3:0.80
Language                                 : English
Default                                  : Yes
Forced                                   : No

Audio #1
ID                                       : 2
Format                                   : AC-3
Format/Info                              : Audio Coding 3
Commercial name                          : Dolby Digital
Codec ID                                 : A_AC3
Duration                                 : 1 h 30 min
Bit rate mode                            : Constant
Bit rate                                 : 192 kb/s
Channel(s)                               : 2 channels
Channel layout                           : L R
Sampling rate                            : 48.0 kHz
Frame rate                               : 31.250 FPS (1536 SPF)
Bit depth                                : 16 bits
Compression mode                         : Lossy
Stream size                              : 124 MiB (1%)
Title                                    : , 2 ch, 192 Кбт/с
Language                                 : Ukrainian
Service kind                             : Complete Main
Default                                  : Yes
Forced                                   : No

Audio #2
ID                                       : 3
Format                                   : AC-3
Format/Info                              : Audio Coding 3
Commercial name                          : Dolby Digital
Codec ID                                 : A_AC3
Duration                                 : 1 h 30 min
Bit rate mode                            : Constant
Bit rate                                 : 640 kb/s
Channel(s)                               : 6 channels
Channel layout                           : L R C LFE Ls Rs
Sampling rate                            : 48.0 kHz
Frame rate                               : 31.250 FPS (1536 SPF)
Bit depth                                : 16 bits
Compression mode                         : Lossy
Stream size                              : 412 MiB (5%)
Title                                    : , 6 ch, 640 Кбт/с
Language                                 : English
Service kind                             : Complete Main
Default                                  : No
Forced                                   : No

Text #1
ID                                       : 4
Format                                   : UTF-8
Codec ID                                 : S_TEXT/UTF8
Codec ID/Info                            : UTF-8 Plain Text
Duration                                 : 1 h 23 min
Bit rate                                 : 53 b/s
Count of elements                        : 1225
Stream size                              : 32.3 KiB (0%)
Title                                    : Full
Language                                 : English
Default                                  : No
Forced                                   : No

Text #2
ID                                       : 5
Format                                   : UTF-8
Codec ID                                 : S_TEXT/UTF8
Codec ID/Info                            : UTF-8 Plain Text
Duration                                 : 1 h 29 min
Bit rate                                 : 59 b/s
Count of elements                        : 1551
Stream size                              : 39.1 KiB (0%)
Title                                    : SDH
Language                                 : English
Default                                  : No
Forced                                   : No

Menu
00:00:00.000                             : en:Chapter 01
00:05:12.353                             : en:Chapter 02
00:09:48.296                             : en:Chapter 03
00:15:13.203                             : en:Chapter 04
00:21:13.063                             : en:Chapter 05
00:27:49.793                             : en:Chapter 06
00:34:33.446                             : en:Chapter 07
00:40:52.658                             : en:Chapter 08
00:46:00.591                             : en:Chapter 09
00:50:02.874                             : en:Chapter 10
00:56:43.817                             : en:Chapter 11
01:00:45.016                             : en:Chapter 12
01:06:41.247                             : en:Chapter 13
01:12:45.277                             : en:Chapter 14
01:16:46.476                             : en:Chapter 15
01:23:51.693                             : en:Chapter 16
Скріншоти




Джерело:
Особиста оцінка: 0 - не дивився


 Трекер:    Зареєстрований   

Завантажити / скачати фільм українською



відео для новачків



 Зареєстрований:   2019-09-17 09:47
 Розмір:   8.34 GB 
 Оцінка фільму:   8.8/10 (Голосів: 18)
   
Інші релізи
   Дитячі ігри / Child's Play (2019) 1080p H.265 Ukr/Eng | Sub Eng -Star-Lord-  1 / 0   4.08 GB   2019-09-18 22:34 
   Дитячі ігри / Child's Play (2019) Ukr/Eng antik_2008  0 / 0   1.47 GB   2019-09-17 11:26 
   Дитячі ігри / Child's Play (2019) Remux 1080p Ukr/Eng | Sub Eng staf777  0 / 0   22.39 GB   2019-09-17 10:59 
   Дитячі ігри / Child's Play (2019) 720p Ukr/Eng | Sub Eng 11FrYkT  1 / 0   4.17 GB   2019-09-17 09:16 
   Дитячі ігри / Child's Play (2019) AVC Ukr/Eng | Sub Eng 11FrYkT  2 / 0   1.58 GB   2019-09-17 09:05 
bot 
робот


З нами з: 30.09.07
Востаннє: 26.05.05
Повідомлень: 25557

2019-09-10 13:43  
Тему перенесено з Анонси релізів до форуму Фільми в HD


antik_2008

armogun 
Попереджень: 1
Попереджень: 1 


З нами з: 04.05.13
Востаннє: 21.09.20
Повідомлень: 687

2019-09-10 22:08  
У цілім світі найкращий друг, найкраще друга нема навкруг....
Mike88 
Новенький


З нами з: 21.10.08
Востаннє: 19.09.20
Повідомлень: 14

2019-09-12 22:05  
з"явився новий , від Амазону, з більшим на половину бітрейтом відео
Kamper 
Свій


З нами з: 21.01.13
Востаннє: 21.09.20
Повідомлень: 86

2019-09-12 23:16  
6536 Kbit/s - угу, вже таке є.
Kamper 
Свій


З нами з: 21.01.13
Востаннє: 21.09.20
Повідомлень: 86

2019-09-15 20:39  
На iTunes вже є 12.4 Mbit/s і навіть 31.1 Mbit/s
11FrYkT 
Модератор відео


З нами з: 20.02.11
Востаннє: 21.09.20
Повідомлень: 6992

2019-09-15 21:42  
Kamper написано:
На iTunes вже є 12.4 Mbit/s і навіть 31.1 Mbit/s

не пишіть дурниць

Kamper 
Свій


З нами з: 21.01.13
Востаннє: 21.09.20
Повідомлень: 86

2019-09-16 11:51  
11FrYkT
а де ж кацапи його взяли?

11FrYkT 
Модератор відео


З нами з: 20.02.11
Востаннє: 21.09.20
Повідомлень: 6992

2019-09-16 13:06  
Kamper написано:
а де ж кацапи його взяли?

кого взяли? Вийщов блур, тюнс тут до чого?

Anonymous 







2019-09-17 09:49  
Торент файл оновлено. Заміна відео на 1080p

Ваш часовий пояс: GMT + 2 Години

Нова тема   Відповісти