Вчора / Yesterday (2019) 1080p Ukr/Eng | Sub Eng/Fre/Spa

Нові коментарі

Нова тема   Відповісти
Автор Повідомлення
Anonymous 







2019-09-10 11:29  
Вчора / Yesterday (2019) 1080p Ukr/Eng | Sub Eng/Fre/Spa


Альтернативні постери





«Світ забув про The Beatles. Але тільки не Джек...»



Жанр: комедія, мелодрама, музика, мюзикл, фентезі
Країна: Велика Британія, Росія, Китай





Кінокомпанія: Decibel Films, Etalon Film, Perfect World Pictures
Режисер: Денні Бойл
Актори: Гімеш Патель, Лілі Джеймс, Софі Ді Мартіно, Елліз Шаппелль, Міра Сайал, Гаррі Мішель, Вінсент Франклін, Джоель Фрай, Майкл Ківанука

Сюжет:
Уявіть собі світ, де всі забули про «The Beatles»… Молодий талановитий музикант розуміє – не можна втрачати такий шанс і видає хіти легендарного гурту за свої власні. Концерти, шоу, записи, слава і визнання! І це не сон, а нова комедія від оскароносного режисера Денні Бойла.


Тривалість: 01:56:14
Якість: 1080p

Відео:
кодек:
розмір кадру: 1920x808
бітрейт: 8783 кб/с

Аудіо # 1:
мова: українська
переклад: професійний дубльований
кодек: 2.0
бітрейт: 192 кб/с

Аудіо # 2:
мова: англійська
переклад: оригінал
кодек: 5.1
бітрейт: 640 кб/с

Аудіо # 3:
мова: англійська
переклад: оригінал
кодек: 2.0 |Commentary|
бітрейт: 192 кб/с

Субтитри: (Forced, Full)
мова: іспанська
тип: програмні (м'які)
формат: *.pgs

Субтитри: (SDH)
мова: англійська
тип: програмні (м'які)
формат: *.pgs

Субтитри: (Forced, Full)
мова: французька
тип: програмні (м'які)
формат: *.pgs
Info
Код:
General
Complete name                            : Yesterday (2019) 1080p [UKR_ENG] [ViDeO_Hurtom].
Format                                   :
Format version                           : Version 4
File size                                : 8.03 GiB
Duration                                 : 1 h 56 min
Overall bit rate                         : 9 886 kb/s
Movie name                               : Yesterday (2019) 1080p [UKR_ENG] [ViDeO_Hurtom]
Encoded date                             : UTC 2019-10-20 20:23:34
Writing application                      : v30.1.0 ('Forever And More') 64-bit
Writing library                          : libebml v1.3.6 + v1.4.9
Cover                                    : Yes
Attachments                              : cover.jpg

Video
ID                                       : 1
Format                                   : AVC
Format/Info                              : Advanced Video Codec
Format profile                           : [email protected]
Format settings                          : CABAC / 5 Ref Frames
Format settings, CABAC                   : Yes
Format settings, RefFrames               : 5 frames
Codec ID                                 : V_MPEG4/ISO/AVC
Duration                                 : 1 h 56 min
Bit rate                                 : 8 783 kb/s
Width                                    : 1 920 pixels
Height                                   : 808 pixels
Display aspect ratio                     : 2.40:1
Frame rate mode                          : Constant
Frame rate                               : 23.976 FPS
Color space                              : YUV
Chroma subsampling                       : 4:2:0
Bit depth                                : 8 bits
Scan type                                : Progressive
Bits/(Pixel*Frame)                       : 0.236
Stream size                              : 7.13 GiB (89%)
Writing library                          : core 158 r2984 3759fcb
Encoding settings                        : cabac=1 / ref=5 / deblock=1:-3:-3 / analyse=0x3:0x113 / me=umh / subme=8 / psy=1 / psy_rd=1.00:0.00 / mixed_ref=1 / me_range=16 / chroma_me=1 / trellis=1 / 8x8dct=1 / cqm=0 / deadzone=21,11 / fast_pskip=1 / chroma_qp_offset=-2 / threads=25 / lookahead_threads=4 / sliced_threads=0 / nr=0 / decimate=1 / interlaced=0 / bluray_compat=0 / constrained_intra=0 / bframes=3 / b_pyramid=2 / b_adapt=1 / b_bias=0 / direct=3 / weightb=1 / open_gop=0 / weightp=2 / keyint=250 / keyint_min=23 / scenecut=40 / intra_refresh=0 / rc_lookahead=50 / rc=2pass / mbtree=1 / bitrate=8783 / ratetol=1.0 / qcomp=0.60 / qpmin=0 / qpmax=69 / qpstep=4 / cplxblur=20.0 / qblur=0.5 / ip_ratio=1.40 / aq=1:1.00
Language                                 : English
Default                                  : Yes
Forced                                   : No

Audio #1
ID                                       : 2
Format                                   : AC-3
Format/Info                              : Audio Coding 3
Commercial name                          : Dolby Digital
Codec ID                                 : A_AC3
Duration                                 : 1 h 56 min
Bit rate mode                            : Constant
Bit rate                                 : 192 kb/s
Channel(s)                               : 2 channels
Channel layout                           : L R
Sampling rate                            : 48.0 kHz
Frame rate                               : 31.250 FPS (1536 SPF)
Bit depth                                : 16 bits
Compression mode                         : Lossy
Stream size                              : 160 MiB (2%)
Title                                    : 2.0 | 192 kb/s
Language                                 : Ukrainian
Service kind                             : Complete Main
Default                                  : Yes
Forced                                   : No

Audio #2
ID                                       : 3
Format                                   : AC-3
Format/Info                              : Audio Coding 3
Commercial name                          : Dolby Digital
Codec ID                                 : A_AC3
Duration                                 : 1 h 56 min
Bit rate mode                            : Constant
Bit rate                                 : 640 kb/s
Channel(s)                               : 6 channels
Channel layout                           : L R C LFE Ls Rs
Sampling rate                            : 48.0 kHz
Frame rate                               : 31.250 FPS (1536 SPF)
Bit depth                                : 16 bits
Compression mode                         : Lossy
Stream size                              : 532 MiB (6%)
Title                                    : 5.1 | 640 kb/s
Language                                 : English
Service kind                             : Complete Main
Default                                  : No
Forced                                   : No

Audio #3
ID                                       : 4
Format                                   : AC-3
Format/Info                              : Audio Coding 3
Commercial name                          : Dolby Digital
Codec ID                                 : A_AC3
Duration                                 : 1 h 56 min
Bit rate mode                            : Constant
Bit rate                                 : 192 kb/s
Channel(s)                               : 2 channels
Channel layout                           : L R
Sampling rate                            : 48.0 kHz
Frame rate                               : 31.250 FPS (1536 SPF)
Bit depth                                : 16 bits
Compression mode                         : Lossy
Stream size                              : 160 MiB (2%)
Title                                    : 2.0 | 192 kb/s
Language                                 : English
Service kind                             : Complete Main
Default                                  : No
Forced                                   : No

Text #1
ID                                       : 5
Format                                   : PGS
Muxing mode                              : zlib
Codec ID                                 : S_HDMV/PGS
Codec ID/Info                            : Picture based subtitle format used on BDs/HD-DVDs
Duration                                 : 1 h 54 min
Bit rate                                 : 901 b/s
Count of elements                        : 70
Stream size                              : 756 KiB (0%)
Title                                    : Forced
Language                                 : French
Default                                  : Yes
Forced                                   : No

Text #2
ID                                       : 6
Format                                   : PGS
Muxing mode                              : zlib
Codec ID                                 : S_HDMV/PGS
Codec ID/Info                            : Picture based subtitle format used on BDs/HD-DVDs
Duration                                 : 1 h 44 min
Bit rate                                 : 179 b/s
Count of elements                        : 12
Stream size                              : 138 KiB (0%)
Title                                    : Forced
Language                                 : Spanish
Default                                  : No
Forced                                   : No

Text #3
ID                                       : 7
Format                                   : PGS
Muxing mode                              : zlib
Codec ID                                 : S_HDMV/PGS
Codec ID/Info                            : Picture based subtitle format used on BDs/HD-DVDs
Duration                                 : 1 h 54 min
Bit rate                                 : 59.0 kb/s
Count of elements                        : 4250
Stream size                              : 48.5 MiB (1%)
Title                                    : SDH
Language                                 : English
Default                                  : No
Forced                                   : No

Text #4
ID                                       : 8
Format                                   : PGS
Muxing mode                              : zlib
Codec ID                                 : S_HDMV/PGS
Codec ID/Info                            : Picture based subtitle format used on BDs/HD-DVDs
Duration                                 : 1 h 54 min
Bit rate                                 : 40.7 kb/s
Count of elements                        : 3065
Stream size                              : 33.4 MiB (0%)
Title                                    : Full
Language                                 : Spanish
Default                                  : No
Forced                                   : No

Text #5
ID                                       : 9
Format                                   : PGS
Muxing mode                              : zlib
Codec ID                                 : S_HDMV/PGS
Codec ID/Info                            : Picture based subtitle format used on BDs/HD-DVDs
Duration                                 : 1 h 54 min
Bit rate                                 : 43.8 kb/s
Count of elements                        : 3060
Stream size                              : 36.0 MiB (0%)
Title                                    : Full
Language                                 : French
Default                                  : No
Forced                                   : No

Menu
00:00:00.000                             : en:00:00:00.000
00:06:16.668                             : en:00:06:16.668
00:11:19.679                             : en:00:11:19.679
00:16:13.097                             : en:00:16:13.097
00:21:28.287                             : en:00:21:28.287
00:27:04.540                             : en:00:27:04.540
00:33:31.885                             : en:00:33:31.885
00:38:55.083                             : en:00:38:55.083
00:45:53.250                             : en:00:45:53.250
00:48:17.061                             : en:00:48:17.061
00:56:24.339                             : en:00:56:24.339
01:03:47.490                             : en:01:03:47.490
01:09:16.486                             : en:01:09:16.486
01:14:17.078                             : en:01:14:17.078
01:19:04.615                             : en:01:19:04.615
01:24:10.587                             : en:01:24:10.587
01:31:51.923                             : en:01:31:51.923
01:36:00.588                             : en:01:36:00.588
01:40:03.247                             : en:01:40:03.247
01:46:51.947                             : en:01:46:51.947
Скріншоти




Джерело:
Особиста оцінка: 0 - не дивився

Вчора / Yesterday (2019) 1080p Ukr/Eng | Sub Eng/Fre/Spa


Золотий реліз (завантажене не впливає на рейтинг)
 Трекер:    Зареєстрований   

Завантажити / скачати фільм українською



відео для новачків



 Зареєстрований:   2019-10-20 22:41
 Розмір:   8.03 GB 
 Оцінка фільму:   8.8/10 (Голосів: 54)
   
Інші релізи
   Вчора / Yesterday (2019) AVC Ukr/Eng | Sub Eng 11FrYkT  24 / 2   1.95 GB   2019-11-15 17:41 
   Вчора / Yesterday (2019) 720p Ukr/Eng | Sub Eng 11FrYkT  8 / 0   7.57 GB   2019-11-15 17:38 
   Вчора / Yesterday (2019) 1080p H.265 Ukr/Eng | Sub Eng -Star-Lord-  6 / 1   8.82 GB   2019-10-26 19:17 
   Вчора / Yesterday (2019) antik_2008  26 / 0   1.47 GB   2019-10-20 23:49 
   Вчора / Yesterday (2019) Remux 1080p Ukr/Eng | Sub Eng/Fre/Spa antik_2008  3 / 0   28.44 GB   2019-10-20 22:11 
   Вчора / Yesterday (2019) UHD Remux 4K 2160p HDR H.265 Ukr/Eng | Sub Eng/Fre/Spa antik_2008  12 / 1   52.46 GB   2019-10-20 22:01 
tatopylys 
Свій


З нами з: 12.05.16
Востаннє: 16.11.19
Повідомлень: 54

2019-09-10 19:07  
дякую за реліз .подивлюсь - поділюсь враженнями
yourgrin 
Новенький


З нами з: 05.03.14
Востаннє: 15.11.19
Повідомлень: 11

2019-09-14 01:09  
Чудовий фільм від геніального режисера.
Anonymous 







2019-10-20 22:43  
Торент оновлено! Заміна відео на 1080p
lulu82 
Новенький


З нами з: 29.10.09
Востаннє: 10.11.19
Повідомлень: 2

2019-10-24 13:55  
Як на мене - цікавий та романтичний, трохи фантастичний фільм. Дякую! Happy
kronn 
Новенький


З нами з: 31.01.15
Востаннє: 14.11.19
Повідомлень: 10

2019-10-25 22:54  
Шикарний фільм. Оригінальний концепт, чудовий сценарій, гарна робота оператора-постановника. Непогані актори.
Дякую за реліз!

migogerz 
Новенький


З нами з: 03.10.19
Востаннє: 03.11.19
Повідомлень: 1

2019-10-26 09:44  
Цей фільм точно не самий гірший, що я бачив. Дійсно заслуговує уваги.
Ваш часовий пояс: GMT + 2 Години

Нова тема   Відповісти