Вогнеборці / Only the Brave (2017) 1080p 2xUkr/Eng | Sub Ukr/Eng

Нові коментарі

Нова тема   Відповісти
Автор Повідомлення
Anonymous 







2019-09-09 22:34  
Вогнеборці / Only the Brave (2017) 1080p 2xUkr/Eng | Sub Ukr/Eng

Вогнеборці / Only the Brave (2017) 1080p 2xUkr/Eng | Sub Ukr/Eng


Жанр: біографічний, драма
Країна: США



Кінокомпанія: Sony / Columbia, Black Label Media, Conde Nast Entertainment, Di Bonaventura Pictures
Режисер: Джозеф Косінскі / Joseph Kosinski
Актори: Джош Бролін, Майлз Теллер, Джефф Бріджес, Дженніфер Коннеллі, Джеймс Бедж Дейл, Тейлор Кітч, Енді МакДавелл, Джофф Стульц, Алекс Расселл, Тед Лакінбілл та інші

Сюжет:
Головні герої фільму – пожежники. Вони все життя тренувалися для того, щоб у разі необхідності захистити своє рідне місто від вогню. Влітку 2013 року в горах поруч з містом Прескотт в штаті Арізона через блискавку спалахнула небувала пожежа. На її гасіння було кинуто всі сили. У тому числі загін «Granite Mountain Hotshots».


Тривалість: 02:14:03
Якість: 1080p
Відео:
кодек:
розмір кадру: 1920 х 804
бітрейт: 15,1 Мб/с

Аудіо # 1:
мова: українська
переклад: професійний дубльований
кодек: 2.0 (стерео)
бітрейт: 192 кб/с

Аудіо # 2:
мова: українська
переклад: багатоголосий закадровий |
кодек: 2.0
бітрейт: 192 кб/с

Аудіо # 3:
мова: англійська
переклад: оригінал
кодек: 5.1
бітрейт: 1509 кб/с

Аудіо # 4:
мова: англійська
переклад: коментарі актора Джоша Броліна та режисера Джозефа Косінскі
кодек: 2.0
бітрейт: 192 кб/с

Субтитри # 1:
мова: українська (Full)
тип: програмні (м'які) | megogo
формат: *.srt
Примітка: відредаговано.

Субтитри # 2-4:
мова: англійська (Full, SDH, Commentary)
тип: програмні (м'які)
формат: *.srt
Info
General
Complete name : Only the Brave (2017) 1080p [UKR_ENG] [ViDeO_Hurtom].
Format :
Format version : Version 4
File size : 16.1 GiB
Duration : 2 h 14 min
Overall bit rate : 17.2 Mb/s
Movie name : Only the Brave (2017) 1080p [UKR_ENG] [ViDeO_Hurtom]
Encoded date : UTC 2020-12-20 22:55:57
Writing application : v30.1.0 ('Forever And More') 64-bit
Writing library : libebml v1.3.6 + v1.4.9
Cover : Yes
Attachments : cover.jpg

Video
ID : 1
Format : AVC
Format/Info : Advanced Video Codec
Format profile : [email protected]
Format settings : CABAC / 5 Ref Frames
Format settings, CABAC : Yes
Format settings, RefFrames : 5 frames
Codec ID : V_MPEG4/ISO/AVC
Duration : 2 h 14 min
Bit rate : 15.1 Mb/s
Width : 1 920 pixels
Height : 804 pixels
Display aspect ratio : 2.40:1
Frame rate mode : Constant
Frame rate : 23.976 (24000/1001) FPS
Color space : YUV
Chroma subsampling : 4:2:0
Bit depth : 8 bits
Scan type : Progressive
Bits/(Pixel*Frame) : 0.409
Stream size : 14.2 GiB (88%)
Writing library : core 155 r2867+74 66b5600 t_mod_Custom_2 [[email protected] X86_64]
Encoding settings : cabac=1 / ref=5 / deblock=1:-3:-3 / analyse=0x3:0x133 / me=umh / subme=10 / psy=1 / fade_compensate=0.00 / psy_rd=1.00:0.00 / mixed_ref=1 / me_range=64 / chroma_me=1 / trellis=2 / 8x8dct=1 / cqm=0 / deadzone=21,11 / fast_pskip=0 / chroma_qp_offset=-2 / threads=24 / lookahead_threads=4 / sliced_threads=0 / nr=0 / decimate=0 / interlaced=0 / bluray_compat=0 / constrained_intra=0 / fgo=0 / bframes=8 / b_pyramid=2 / b_adapt=2 / b_bias=0 / direct=3 / weightb=1 / open_gop=0 / weightp=2 / keyint=250 / keyint_min=23 / scenecut=40 / intra_refresh=0 / rc_lookahead=60 / rc=crf / mbtree=0 / crf=17.1000 / qcomp=0.60 / qpmin=0:0:0 / qpmax=69:69:69 / qpstep=4 / vbv_maxrate=62500 / vbv_bufsize=78125 / crf_max=0.0 / nal_hrd=none / filler=0 / ip_ratio=1.30 / pb_ratio=1.20 / aq=3:0.65 / aq-sensitivity=10.00 / aq-factor=1.00:1.00:1.00 / aq2=0 / aq3=0 / zones=186519,192838,b=0.2
Language : English
Default : Yes
Forced : No

Audio #1
ID : 2
Format : AC-3
Format/Info : Audio Coding 3
Commercial name : Dolby Digital
Codec ID : A_AC3
Duration : 2 h 14 min
Bit rate mode : Constant
Bit rate : 192 kb/s
Channel(s) : 2 channels
Channel layout : L R
Sampling rate : 48.0 kHz
Frame rate : 31.250 FPS (1536 SPF)
Bit depth : 16 bits
Compression mode : Lossy
Stream size : 184 MiB (1%)
Title : , 2 ch, 192 Кбт/с | Dub
Language : Ukrainian
Service kind : Complete Main
Default : Yes
Forced : No

Audio #2
ID : 3
Format : AC-3
Format/Info : Audio Coding 3
Commercial name : Dolby Digital
Codec ID : A_AC3
Duration : 2 h 14 min
Bit rate mode : Constant
Bit rate : 192 kb/s
Channel(s) : 2 channels
Channel layout : L R
Sampling rate : 48.0 kHz
Frame rate : 31.250 FPS (1536 SPF)
Bit depth : 16 bits
Compression mode : Lossy
Stream size : 184 MiB (1%)
Title : , 2 ch, 192 Кбт/с | Інтер
Language : Ukrainian
Service kind : Complete Main
Default : No
Forced : No

Audio #3
ID : 4
Format :
Format/Info : Digital Theater Systems
Codec ID : A_DTS
Duration : 2 h 14 min
Bit rate mode : Constant
Bit rate : 1 509 kb/s
Channel(s) : 6 channels
Channel layout : C L R Ls Rs LFE
Sampling rate : 48.0 kHz
Frame rate : 93.750 FPS (512 SPF)
Bit depth : 24 bits
Compression mode : Lossy
Stream size : 1.41 GiB (9%)
Title : , 6 ch, 1510 Кбт/с
Language : English
Default : No
Forced : No

Audio #4
ID : 5
Format : AC-3
Format/Info : Audio Coding 3
Commercial name : Dolby Digital
Codec ID : A_AC3
Duration : 2 h 14 min
Bit rate mode : Constant
Bit rate : 192 kb/s
Channel(s) : 2 channels
Channel layout : L R
Sampling rate : 48.0 kHz
Frame rate : 31.250 FPS (1536 SPF)
Bit depth : 16 bits
Compression mode : Lossy
Stream size : 184 MiB (1%)
Title : , 2 ch, 192 Кбт/с | Commentary
Language : English
Service kind : Complete Main
Default : No
Forced : No

Text #1
ID : 6
Format : UTF-8
Codec ID : S_TEXT/UTF8
Codec ID/Info : UTF-8 Plain Text
Duration : 2 h 5 min
Bit rate : 90 b/s
Count of elements : 1827
Stream size : 83.5 KiB (0%)
Title : Full
Language : Ukrainian
Default : No
Forced : No

Text #2
ID : 7
Format : UTF-8
Codec ID : S_TEXT/UTF8
Codec ID/Info : UTF-8 Plain Text
Duration : 2 h 3 min
Bit rate : 65 b/s
Count of elements : 1897
Stream size : 59.1 KiB (0%)
Title : Full
Language : English
Default : No
Forced : No

Text #3
ID : 8
Format : UTF-8
Codec ID : S_TEXT/UTF8
Codec ID/Info : UTF-8 Plain Text
Duration : 2 h 9 min
Bit rate : 72 b/s
Count of elements : 2262
Stream size : 68.5 KiB (0%)
Title : SDH
Language : English
Default : Yes
Forced : No

Text #4
ID : 9
Format : UTF-8
Codec ID : S_TEXT/UTF8
Codec ID/Info : UTF-8 Plain Text
Duration : 2 h 9 min
Bit rate : 114 b/s
Count of elements : 2482
Stream size : 108 KiB (0%)
Title : Commentary
Language : English
Default : No
Forced : No

Menu
00:00:00.000 : en:00:00:00.000
00:06:39.107 : en:00:06:39.107
00:16:14.891 : en:00:16:14.891
00:26:30.297 : en:00:26:30.297
00:34:26.856 : en:00:34:26.856
00:43:54.298 : en:00:43:54.298
00:51:29.336 : en:00:51:29.336
00:59:18.430 : en:00:59:18.430
01:08:27.312 : en:01:08:27.312
01:16:19.366 : en:01:16:19.366
01:24:16.468 : en:01:24:16.468
01:32:51.524 : en:01:32:51.524
01:39:07.567 : en:01:39:07.567
01:45:11.972 : en:01:45:11.972
01:52:54.935 : en:01:52:54.935
02:02:04.776 : en:02:02:04.776
Скріншоти






Джерело:
Особиста оцінка: 10 - без зайвих вагань рекомендую всім.

Подяка за звук панам igor911, Bender, krigg070.


 Трекер:    Зареєстрований   

Завантажити / скачати фільм українською



відео для новачків



 Зареєстрований:   2020-12-21 01:12
 Розмір:   16.13 GB 
 Оцінка фільму:   9.5/10 (Голосів: 17)
   
Інші релізи
[email protected] 
Новенький


З нами з: 24.09.12
Востаннє: 19.02.21
Повідомлень: 11

2019-09-18 07:46  
Фільм вартий уваги, рекомендую
nazar.e30 
Новенький


З нами з: 09.01.11
Востаннє: 01.03.21
Повідомлень: 19

2019-11-16 21:25  
Дуже сильний фільм...
Anonymous 







2020-12-21 01:13  
Реліз оновлено: додано дубляж та українські субтитри.
hetzendorf 
Забанено
Забанено


З нами з: 23.07.15
Востаннє: 05.01.21
Повідомлень: 2966

2020-12-25 01:44  
Чудово атмосферно й реалістично знятий фільм.
Вдалий мистецький меморіал загиблим героям-пожежникам.
10/10

Ваш часовий пояс: GMT + 2 Години

Нова тема   Відповісти