Рокетмен / Rocketman (2019) Remux 1080p Ukr/Eng | Sub Ukr/Eng

Нові коментарі

Нова тема   Відповісти
Автор Повідомлення
Anonymous 







2019-09-09 18:41  
Рокетмен / Rocketman (2019) Remux 1080p Ukr/Eng | Sub Ukr/Eng



Жанр: біографічний, драма, музичний, мюзикл
Країна: Велика Британія, США, Канада



Кінокомпанія: Paramount Pictures, New Republic Pictures, Marv Films
Режисер: Декстер Флетчер / Dexter Fletcher
Актори: Тарон Еґертон / Taron Egerton, Джеймі Белл / Jamie Bell, Річард Медден / Richard Madden, Брайс Даллас Говард / Bryce Dallas Howard, Джемма Джонс / Gemma Jones, Стівен Макінтош / Steven Mackintosh, Том Беннетт / Tom Bennett, Чарлі Роу / Charlie Rowe, Стівен Ґрем / Stephen Graham та інші

Сюжет:
Фентезійний байопік про одного з найуспішніших виконавців сучасності – неповторного сера Елтона Джона. Історія про те, як музичний вундеркінд перетворився в легенду британського року.
Офіційні українські трейлери та відео:
трейлер 1


трейлер 2


промо 1


промо 2


промо 3


Рокетмен: "Crocodile Rock"


Рокетмен: Тайрон Еґертон


фрагмент


про костюми 1


про костюми 2
Рейтинг MPAA: R - особам до 17 років обов'язкова присутність батьків або дорослого опікуна
Вікова категорія: 16+
Тривалість: 02:01:16
Якість:

Відео:
кодек:
розмір кадру: 1920x1080
бітрейт: 29,2 Мб/с

Аудіо # 1:
мова: українська
переклад: професійний дубльований | студія LeDoyen
кодек: 5.1
бітрейт: 384 кб/с

Аудіо # 2:
мова: англійська
переклад: оригінал
кодек: 5.1
бітрейт: 640 кб/с

Аудіо # 3:
мова: англійська
переклад: оригінал
кодек: TrueHD + Atmos 7.1
бітрейт: 4133 кб/с

Субтитри # 1-2: (Forced, Full)
мова: українська
тип: програмні (м'які)
формат: *.srt

Субтитри # 3, 4, 5: (Full)
мова: англійська
тип: програмні (м'які)
формат: *.srt
Info
Код:
General
Complete name                            : Rocketman (2019) Blu-Ray Remux 1080p [Ukr_Eng] [Video_Hurtom].
Format                                   :
Format version                           : Version 4
File size                                : 29.2 GiB
Duration                                 : 2 h 1 min
Overall bit rate mode                    : Variable
Overall bit rate                         : 34.5 Mb/s
Movie name                               : Rocketman (2019) Blu-Ray Remux 1080p [Ukr_Eng] [Video_Hurtom]
Encoded date                             : UTC 2019-09-09 14:51:56
Writing application                      : v30.1.0 ('Forever And More') 64-bit
Writing library                          : libebml v1.3.6 + v1.4.9

Video
ID                                       : 1
Format                                   : AVC
Format/Info                              : Advanced Video Codec
Format profile                           : [email protected]
Format settings                          : CABAC / 4 Ref Frames
Format settings, CABAC                   : Yes
Format settings, RefFrames               : 4 frames
Codec ID                                 : V_MPEG4/ISO/AVC
Duration                                 : 2 h 1 min
Bit rate mode                            : Variable
Bit rate                                 : 29.2 Mb/s
Maximum bit rate                         : 32.6 Mb/s
Width                                    : 1 920 pixels
Height                                   : 1 080 pixels
Display aspect ratio                     : 16:9
Frame rate mode                          : Constant
Frame rate                               : 23.976 (24000/1001) FPS
Color space                              : YUV
Chroma subsampling                       : 4:2:0
Bit depth                                : 8 bits
Scan type                                : Progressive
Bits/(Pixel*Frame)                       : 0.588
Stream size                              : 24.8 GiB (85%)
Language                                 : English
Default                                  : Yes
Forced                                   : No

Audio #1
ID                                       : 2
Format                                   : AC-3
Format/Info                              : Audio Coding 3
Commercial name                          : Dolby Digital
Codec ID                                 : A_AC3
Duration                                 : 2 h 1 min
Bit rate mode                            : Constant
Bit rate                                 : 384 kb/s
Channel(s)                               : 6 channels
Channel layout                           : L R C LFE Ls Rs
Sampling rate                            : 48.0 kHz
Frame rate                               : 31.250 FPS (1536 SPF)
Bit depth                                : 16 bits
Compression mode                         : Lossy
Stream size                              : 333 MiB (1%)
Title                                    : , 6 ch, 384 Кбт/с
Language                                 : Ukrainian
Service kind                             : Complete Main
Default                                  : Yes
Forced                                   : No

Audio #2
ID                                       : 3
Format                                   : AC-3
Format/Info                              : Audio Coding 3
Commercial name                          : Dolby Digital
Codec ID                                 : A_AC3
Duration                                 : 2 h 1 min
Bit rate mode                            : Constant
Bit rate                                 : 640 kb/s
Channel(s)                               : 6 channels
Channel layout                           : L R C LFE Ls Rs
Sampling rate                            : 48.0 kHz
Frame rate                               : 31.250 FPS (1536 SPF)
Bit depth                                : 16 bits
Compression mode                         : Lossy
Stream size                              : 555 MiB (2%)
Title                                    : , 6 ch, 640 Кбт/с
Language                                 : English
Service kind                             : Complete Main
Default                                  : No
Forced                                   : No

Audio #3
ID                                       : 4
Format                                   : MLP FBA 16-ch
Format/Info                              : Meridian Lossless Packing FBA with 16-channel presentation
Commercial name                          : Dolby TrueHD with Dolby Atmos
Codec ID                                 : A_TRUEHD
Duration                                 : 2 h 1 min
Bit rate mode                            : Variable
Bit rate                                 : 4 133 kb/s
Maximum bit rate                         : 7 836 kb/s
Channel(s)                               : 8 channels
Channel layout                           : L R C LFE Ls Rs Lb Rb
Sampling rate                            : 48.0 kHz
Frame rate                               : 1 200.000 FPS (40 SPF)
Compression mode                         : Lossless
Stream size                              : 3.50 GiB (12%)
Title                                    : TrueHD + Atmos 7.1 , 8 ch, 4133 Кбт/с
Language                                 : English
Default                                  : No
Forced                                   : No
Number of dynamic objects                : 11
Bed channel count                        : 1 channel
Bed channel configuration                : LFE

Text #1
ID                                       : 5
Format                                   : UTF-8
Codec ID                                 : S_TEXT/UTF8
Codec ID/Info                            : UTF-8 Plain Text
Duration                                 : 1 h 59 min
Bit rate                                 : 70 b/s
Count of elements                        : 1357
Stream size                              : 61.4 KiB (0%)
Title                                    : Forced
Language                                 : Ukrainian
Default                                  : Yes
Forced                                   : No

Text #2
ID                                       : 6
Format                                   : UTF-8
Codec ID                                 : S_TEXT/UTF8
Codec ID/Info                            : UTF-8 Plain Text
Duration                                 : 1 h 59 min
Bit rate                                 : 19 b/s
Count of elements                        : 341
Stream size                              : 16.7 KiB (0%)
Title                                    : Full
Language                                 : Ukrainian
Default                                  : No
Forced                                   : No

Text #3
ID                                       : 7
Format                                   : UTF-8
Codec ID                                 : S_TEXT/UTF8
Codec ID/Info                            : UTF-8 Plain Text
Duration                                 : 1 h 50 min
Bit rate                                 : 50 b/s
Count of elements                        : 1314
Stream size                              : 41.3 KiB (0%)
Title                                    : Full
Language                                 : English
Default                                  : No
Forced                                   : No

Menu
00:00:00.000                             : en:00:00:00.000
00:05:50.725                             : en:00:05:50.725
00:11:20.805                             : en:00:11:20.805
00:18:43.080                             : en:00:18:43.080
00:22:39.858                             : en:00:22:39.858
00:28:01.054                             : en:00:28:01.054
00:34:21.393                             : en:00:34:21.393
00:38:35.230                             : en:00:38:35.230
00:42:52.445                             : en:00:42:52.445
00:50:40.579                             : en:00:50:40.579
00:57:30.906                             : en:00:57:30.906
01:04:06.176                             : en:01:04:06.176
01:09:28.915                             : en:01:09:28.915
01:16:10.941                             : en:01:16:10.941
01:24:44.079                             : en:01:24:44.079
01:29:09.344                             : en:01:29:09.344
01:35:22.383                             : en:01:35:22.383
01:42:46.243                             : en:01:42:46.243
01:51:11.832                             : en:01:51:11.832
01:55:25.335                             : en:01:55:25.335
Скріншоти




Джерело:
Особиста оцінка: 0 - не дивився


Золотий реліз (завантажене не впливає на рейтинг)
 Трекер:    Зареєстрований   

Завантажити / скачати фільм українською



відео для новачків



 Зареєстрований:   2019-09-09 19:02
 Розмір:   29.19 GB 
 Оцінка фільму:   9.3/10 (Голосів: 7)
   
Інші релізи
   Рокетмен / Rocketman (2019) 1080p H.265 Ukr/Eng | Sub Ukr/Eng -Star-Lord-  14 / 0   6.74 GB   2019-09-10 08:56 
   Рокетмен / Rocketman (2019) UHD Remux 4K 2160p HDR H.265 Ukr/Eng | Sub Ukr/Eng antik_2008  6 / 0   57.24 GB   2019-09-10 08:26 
   Рокетмен / Rocketman (2019) 1080p Ukr/Eng | Sub Ukr/Eng staf777  19 / 0   7.54 GB   2019-09-09 16:28 
   Рокетмен / Rocketman (2019) Ukr/Eng | Sub Ukr/Eng igor911  29 / 0   2.18 GB   2019-09-07 13:18 
   Рокетмен / Rocketman (2019) igor911  24 / 0   1.46 GB   2019-09-07 10:36 
   Рокетмен / Rocketman (2019) 720p Ukr/Eng | Sub Ukr/Eng 11FrYkT  32 / 3   4.94 GB   2019-09-07 10:00 
   Рокетмен / Rocketman (2019) AVC Ukr/Eng | Sub Ukr/Eng 11FrYkT  44 / 0   2.23 GB   2019-09-07 09:54 
bot 
робот


З нами з: 30.09.07
Востаннє: 26.05.05
Повідомлень: 22478

2019-09-09 19:02  
Тему перенесено з Анонси релізів до форуму Фільми в HD


antik_2008

The Gunslinger 
Свій


З нами з: 08.04.12
Востаннє: 18.11.19
Повідомлень: 91

2019-09-12 21:43  
Більше сподобався за Рапсодію. Шкода, що немає кращого звуку.
Ваш часовий пояс: GMT + 2 Години

Нова тема   Відповісти