Maxim Rysanov (Максим Рисанов) - Johann Sebastian Bach - Suites for Solo Cello Nos. 2, 3, 6 - (2014) [] | Classical / Viola

Нові коментарі

Нова тема   Відповісти
Автор Повідомлення
kolpavel 
VIP


З нами з: 04.05.14
Востаннє: 28.02.21
Повідомлень: 1375

2019-09-08 21:39  
Maxim Rysanov (Максим Рисанов) - Johann Sebastian Bach - Suites for Solo Cello Nos. 2, 3, 6 - (2014) [] | Classical / Viola

Maxim Rysanov (Максим Рисанов) - Johann Sebastian Bach - Suites for Solo Cello Nos. 2, 3, 6 - (2014) [] | Classical / Viola


Стиль: Classical / Viola
Країна, місто: Україна, Краматорськ.
Сайти: Офіційний сайт
Видавець: BIS (номер за каталогом: BIS-SACD-2033)
Виконавці:
Максим Рисанов - альт.
Треклист:
    [1]-[6] Suite No. 3 in C major, BWV1009
    [7]-[12] Suite No. 2 in D minor, BWV1008
    [13]-[18] Suite No. 6 in D major, BWV1012

    Suite No.3 in C major, BWV1009 19'54
    01. I. Prélude 2'56
    02. II. Allemande 4'01
    03. III. Courante 3'09
    04. IV. Sarabande 3'25
    05. V. Bourrée I – Bourrée II 3'20
    06. VI. Gigue 3'03

    Suite No.2 in D minor, BWV1008 16'11
    07. I. Prélude 3'21
    08. II. Allemande 2'39
    09. III. Courante 1'32
    10. IV. Sarabande 4'01
    11. V. Menuet I – Menuet II 2'23
    12. VI. Gigue 2'15

    Suite No.6 in D major, BWV1012 27'06
    13. I. Prélude 4'32
    14. II. Allemande 7'47
    15. III. Courante 3'35
    16. IV. Sarabande 3'59
    17. V. Gavotte I – Gavotte II 3'12
    18. VI. Gigue 4'01


Тривалість: 01:04:49
Мова: iнструментальнi композицiї
Аудіо-кодек:
Бітрейт: 625 кб/с
Джерело: трекер
Додаткова інформація:
EAC
Exact Audio Copy V1.0 beta 3 from 29. August 2011

EAC extraction logfile from 10. March 2015, 1:38

Maxim Rysanov / Bach - Suites Nos. 2, 3 & 6

Used drive : HL-DT-STDVDRAM GU70N Adapter: 0 ID: 0

Read mode : Secure
Utilize accurate stream : Yes
Defeat audio cache : Yes
Make use of C2 pointers : No

Read offset correction : 48
Overread into Lead-In and Lead-Out : No
Fill up missing offset samples with silence : Yes
Delete leading and trailing silent blocks : No
Null samples used in CRC calculations : Yes
Used interface : Native Win32 interface for Win NT & 2000

Used output format : User Defined Encoder
Selected bitrate : 128 kBit/s
Quality : High
Add ID3 tag : No
Command line compressor : C:\Program Files (x86)\Exact Audio Copy\\.exe
Additional command line options : -V -8 -T "Date=%year%" -T "Genre=%genre%" %source%

TOC of the extracted CD

Track | Start | Length | Start sector | End sector
---------------------------------------------------------
1 | 0:00.00 | 2:59.21 | 0 | 13445
2 | 2:59.21 | 4:01.23 | 13446 | 31543
3 | 7:00.44 | 3:11.46 | 31544 | 45914
4 | 10:12.15 | 3:27.61 | 45915 | 61500
5 | 13:40.01 | 3:21.01 | 61501 | 76576
6 | 17:01.02 | 3:17.35 | 76577 | 91386
7 | 20:18.37 | 3:24.22 | 91387 | 106708
8 | 23:42.59 | 2:40.31 | 106709 | 118739
9 | 26:23.15 | 1:34.47 | 118740 | 125836
10 | 27:57.62 | 4:03.65 | 125837 | 144126
11 | 32:01.52 | 2:24.74 | 144127 | 155000
12 | 34:26.51 | 2:27.51 | 155001 | 166076
13 | 36:54.27 | 4:35.62 | 166077 | 186763
14 | 41:30.14 | 7:50.53 | 186764 | 222066
15 | 49:20.67 | 3:36.66 | 222067 | 238332
16 | 52:57.58 | 4:03.44 | 238333 | 256601
17 | 57:01.27 | 3:13.71 | 256602 | 271147
18 | 60:15.23 | 4:34.12 | 271148 | 291709

Range status and errors

Selected range

Filename C:\temp\BIS-SACD-2033 - Bach - Suites Nos. 2, 3 & 6 - Rysanov\Bach - Suites Nos. 2, 3 & 6.wav

Peak level 97.9 %
Extraction speed 2.2 X
Range quality 100.0 %
Test CRC BEDCB5DD
Copy CRC BEDCB5DD
Copy OK

No errors occurred

AccurateRip summary

Track 1 not present in database
Track 2 not present in database
Track 3 not present in database
Track 4 not present in database
Track 5 not present in database
Track 6 not present in database
Track 7 not present in database
Track 8 not present in database
Track 9 not present in database
Track 10 not present in database
Track 11 not present in database
Track 12 not present in database
Track 13 not present in database
Track 14 not present in database
Track 15 not present in database
Track 16 not present in database
Track 17 not present in database
Track 18 not present in database

None of the tracks are present in the AccurateRip database

End of status report
==== Log checksum E741177B881885256F8833DD357E1AA122115BEA89829BCEFB6AFD84C784BCAA ====


Якщо Ви справді бажаєте підтримати українське - після прослуховування, якщо музика вам сподобалась, придбайте ліцензійний диск. Підтримаймо вітчизняних виконавців!


Срібний реліз (на рейтинг впливає 50% завантаженого)
 Трекер:    Зареєстрований   

Завантажити / скачати українську музику



відео для новачків



 Зареєстрований:   2019-09-08 21:39
 Розмір:   292 MB 
 Оцінка музики:   10/10 (Голосів: 5)
   
kolpavel 
VIP


З нами з: 04.05.14
Востаннє: 28.02.21
Повідомлень: 1375

2019-09-08 21:42  
https://toloka.to/t103791#1117666 Maxim Rysanov (Максим Рисанов) - Johann Sebastian Bach - Suites for Solo Cello Nos. 1, 4 & 5 - (2010) [] 
Ваш часовий пояс: GMT + 2 Години

Нова тема   Відповісти