Дівчата з Еквестрії. Весняні канікули / My Little Pony: Equestria Girls Spring Breakdown (2019) AVC

Нові коментарі

Нова тема   Відповісти
Автор Повідомлення
sergiyko.5 
VIP


З нами з: 25.02.16
Востаннє: 24.10.20
Повідомлень: 3614

2019-09-08 21:50  
Дівчата з Еквестрії. Весняні канікули / My Little Pony: Equestria Girls Spring Breakdown (2019) AVC

Дівчата з Еквестрії. Весняні канікули / My Little Pony: Equestria Girls Spring Breakdown (2019) AVC

Жанр: фентезі, пригоди, комедія, сімейний
Країна: США, Ірландія
Кінокомпанія: Hasbro Studios, DHX, Allspark Animation
Режисер: Іші Руделл, Катріна Хедлі

Сюжет:
У дівчат розпочались канікули і вони почуваються неймовірно счастливими. На честь цього Твайлайт організувала дівчатам подорож на борту круїзного лайнера з безлімітним фуршетом та безліччу розваг. Але чи зможуть дівчата відмовитись від магії, щоб не зіпсувати свій відпочинок?




Тривалість: 00:42:14
Якість:

Відео: кодек: розмір кадру: 1024 х 576 бітрейт: 1100 кб/с
Аудіо: мова: українська переклад: професійний дубльований кодек: 2.0ch бітрейт: 192 кб/с [ Stereo ]
Озвучення:

Примітка: українська доріжка записана з супутникової трансляції і синхронізована під відео, звук не розтягувався і не змінювався темп.
Про файл:
General
Unique ID : 32269047678725974802286405909343054867 (0x1846CAE2996F685A223F421AC8FF2C13)
Complete name : D:\Documents\Torrents\MULTSER\Equestria Girls.Spring Breakdown.2019..
Format :
Format version : Version 4
File size : 385 MiB
Duration : 42 min 13 s
Overall bit rate : 1 276 kb/s
Movie name : Equestria Girls Spring Breakdown 2019 by sergiyko
Encoded date : UTC 2019-09-08 20:51:06
Writing application : v36.0.0 ('Is That Jazz?') 64-bit
Writing library : libebml v1.3.9 + v1.5.2

Video
ID : 1
Format : AVC
Format/Info : Advanced Video Codec
Format profile : [email protected]
Format settings : CABAC / 7 Ref Frames
Format settings, CABAC : Yes
Format settings, Reference : 7 frames
Codec ID : V_MPEG4/ISO/AVC
Duration : 42 min 13 s
Bit rate : 1 082 kb/s
Width : 1 024 pixels
Height : 576 pixels
Display aspect ratio : 16:9
Frame rate mode : Constant
Frame rate : 25.000 FPS
Color space : YUV
Chroma subsampling : 4:2:0
Bit depth : 8 bits
Scan type : Progressive
Bits/(Pixel*Frame) : 0.073
Stream size : 327 MiB (85%)
Title : Equestria Girls Spring Breakdown 2019
Writing library : core 146 r2538 121396c
Encoding settings : cabac=1 / ref=7 / deblock=1:-1:-1 / analyse=0x3:0x133 / me=umh / subme=10 / psy=1 / psy_rd=0.40:0.00 / mixed_ref=1 / me_range=32 / chroma_me=1 / trellis=2 / 8x8dct=1 / cqm=0 / deadzone=21,11 / fast_pskip=1 / chroma_qp_offset=-2 / threads=24 / lookahead_threads=4 / sliced_threads=0 / nr=0 / decimate=1 / interlaced=0 / bluray_compat=0 / constrained_intra=0 / bframes=10 / b_pyramid=2 / b_adapt=2 / b_bias=0 / direct=3 / weightb=1 / open_gop=0 / weightp=2 / keyint=250 / keyint_min=25 / scenecut=40 / intra_refresh=0 / rc_lookahead=60 / rc=crf / mbtree=1 / crf=18.0 / qcomp=0.70 / qpmin=0 / qpmax=69 / qpstep=4 / ip_ratio=1.40 / aq=1:0.60
Language : English
Default : Yes
Forced : No

Audio
ID : 2
Format : AC-3
Format/Info : Audio Coding 3
Commercial name : Dolby Digital
Codec ID : A_AC3
Duration : 42 min 13 s
Bit rate mode : Constant
Bit rate : 192 kb/s
Channel(s) : 2 channels
Channel layout : L R
Sampling rate : 48.0 kHz
Frame rate : 31.250 FPS (1536 SPF)
Bit depth : 16 bits
Compression mode : Lossy
Stream size : 58.0 MiB (15%)
Title : DUB 2ch | ПлюсПлюс
Language : Ukrainian
Service kind : Complete Main
Default : Yes
Forced : No
Скріншоти:


Автор запису/зведення: sergiyko


 Трекер:    Зареєстрований   

Завантажити / скачати мультфільм українською



відео для новачків



 Зареєстрований:   2019-09-08 23:53
 Розмір:   385 MB 
 Оцінка мультфільму:   10/10 (Голосів: 3)
   
bot 
робот


З нами з: 30.09.07
Востаннє: 26.05.05
Повідомлень: 25909

2019-09-08 21:50  
Тему перенесено з Мультфільми до форуму Анонси релізів


sergiyko.5

bot 
робот


З нами з: 30.09.07
Востаннє: 26.05.05
Повідомлень: 25909

2019-09-08 23:53  
Тему перенесено з Анонси релізів до форуму Мультфільми


sergiyko.5

Ваш часовий пояс: GMT + 2 Години

Нова тема   Відповісти