Формула 1. Сезон 2019. Етап 14. Гран-Прі Італії. Гонка (08.09.2019) 1080p 2xUkr/Eng

Нові коментарі

Нова тема   Відповісти
Автор Повідомлення
sergiyko.5 
VIP


З нами з: 25.02.16
Востаннє: 28.10.20
Повідомлень: 3639

2019-09-08 20:39  
Формула 1. Сезон 2019. Етап 14. Гран-Прі Італії. Гонка (08.09.2019) 1080p 2xUkr/Eng


Формула 1. Сезон 2019. Етап 14. Гран-Прі Італії. Гонка (08.09.2019) 1080p 2xUkr/Eng

Жанр: Перегони Формули 1
Країна: Італія
Телеканал: F1TV
Коментатор: Роман Гончаров, Максим Подзігун

Опис:
Гонка 14 етапу Гран-Прі Італії 2019 року.


Тривалість: 01:45:53
Якість:

Відео: кодек: розмір кадру: 1920 х 1080 бітрейт: 5500 кб/с
Аудіо 1: мова: українська кодек: 2.0 бітрейт: 192 кб/с
Аудіо 2: мова: українська кодек: 2.0 бітрейт: 192 кб/с
Аудіо 3: мова: англійська кодек: 2.0 бітрейт: 128 кб/с
Про файл:
General
Unique ID : 194648768370800224303462799425063270710 (0x926FFD39DFD2EDA24CFCF6346082B936)
Complete name : D:\Documents\Torrents\SPORT\F1.2019.14.Italy.Race.1080p..Ukr.Eng.
Format :
Format version : Version 4
File size : 4.45 GiB
Duration : 1 h 45 min
Overall bit rate : 6 016 kb/s
Movie name : rip by sergiyko
Encoded date : UTC 2019-09-08 18:28:55
Writing application : v36.0.0 ('Is That Jazz?') 64-bit
Writing library : libebml v1.3.9 + v1.5.2

Video
ID : 1
Format : AVC
Format/Info : Advanced Video Codec
Format profile : [email protected]
Format settings : CABAC / 4 Ref Frames
Format settings, CABAC : Yes
Format settings, Reference : 4 frames
Format settings, GOP : M=4, N=50
Codec ID : V_MPEG4/ISO/AVC
Duration : 1 h 45 min
Bit rate mode : Constant
Bit rate : 5 500 kb/s
Width : 1 920 pixels
Height : 1 080 pixels
Display aspect ratio : 16:9
Frame rate mode : Constant
Frame rate : 25.000 FPS
Color space : YUV
Chroma subsampling : 4:2:0
Bit depth : 8 bits
Scan type : Progressive
Bits/(Pixel*Frame) : 0.106
Stream size : 4.07 GiB (91%)
Language : English
Default : Yes
Forced : No

Audio #1
ID : 2
Format : AC-3
Format/Info : Audio Coding 3
Commercial name : Dolby Digital
Codec ID : A_AC3
Duration : 1 h 45 min
Bit rate mode : Constant
Bit rate : 192 kb/s
Channel(s) : 2 channels
Channel layout : L R
Sampling rate : 48.0 kHz
Frame rate : 31.250 FPS (1536 SPF)
Bit depth : 16 bits
Compression mode : Lossy
Delay relative to video : -23 ms
Stream size : 145 MiB (3%)
Title : Роман Гончаров
Language : Ukrainian
Service kind : Complete Main
Default : Yes
Forced : No

Audio #2
ID : 3
Format : AC-3
Format/Info : Audio Coding 3
Commercial name : Dolby Digital
Codec ID : A_AC3
Duration : 1 h 45 min
Bit rate mode : Constant
Bit rate : 192 kb/s
Channel(s) : 2 channels
Channel layout : L R
Sampling rate : 48.0 kHz
Frame rate : 31.250 FPS (1536 SPF)
Bit depth : 16 bits
Compression mode : Lossy
Delay relative to video : -23 ms
Stream size : 145 MiB (3%)
Title : Максим Подзігун
Language : Ukrainian
Service kind : Complete Main
Default : No
Forced : No

Audio #3
ID : 4
Format : LC
Format/Info : Advanced Audio Codec Low Complexity
Codec ID : A_AAC-2
Duration : 1 h 45 min
Bit rate : 132 kb/s
Channel(s) : 2 channels
Channel layout : L R
Sampling rate : 44.1 kHz
Frame rate : 43.066 FPS (1024 SPF)
Compression mode : Lossy
Delay relative to video : -23 ms
Stream size : 99.1 MiB (2%)
Language : English
Default : No
Forced : No
Скріншоти:


Запис/зведення: sergiyko


 Трекер:    Зареєстрований   

Завантажити / скачати торрент



відео для новачків



 Зареєстрований:   2019-09-08 20:39
 Розмір:   4.45 GB 
 Оцінка:   10/10 (Голосів: 9)
   
Zalmanster 
Новенький


З нами з: 24.03.18
Востаннє: 26.04.20
Повідомлень: 1

2019-09-21 19:49  
Сингапур будет?
Ваш часовий пояс: GMT + 2 Години

Нова тема   Відповісти