Дівчата з Еквестрії. Весняні канікули / My Little Pony: Equestria Girls Spring Breakdown (2019) 1080p

Нові коментарі

Нова тема   Відповісти
Автор Повідомлення
sergiyko.5 
Забанено
Забанено


З нами з: 25.02.16
Востаннє: 29.10.20
Повідомлень: 3648

2019-09-08 20:26  
Всі одноіменні релізи на трекері

Дівчата з Еквестрії. Весняні канікули / My Little Pony: Equestria Girls Spring Breakdown (2019) 1080p


Дівчата з Еквестрії. Весняні канікули / My Little Pony: Equestria Girls Spring Breakdown (2019) 1080p

Жанр: фентезі, пригоди, комедія, сімейний
Країна: США, Ірландія
Кінокомпанія: Hasbro Studios, DHX, Allspark Animation
Режисер: Іші Руделл, Катріна Хедлі

Сюжет:
У дівчат розпочались канікули і вони почуваються неймовірно счастливими. На честь цього Твайлайт організувала дівчатам подорож на борту круїзного лайнера з безлімітним фуршетом та безліччу розваг. Але чи зможуть дівчата відмовитись від магії, щоб не зіпсувати свій відпочинок?




Тривалість: 00:42:13
Якість:

Відео: кодек: розмір кадру: 1920 х 1080 бітрейт: 3300 кб/с
Аудіо 1: мова: українська переклад: професійний дубльований кодек: 2.0ch бітрейт: 192 кб/с [ Stereo ]
Озвучення:
Аудіо 2: мова: англійська переклад: оригінал кодек: 5.1 бітрейт: 384 кб/с

Примітка: українська доріжка записана з супутникової трансляції і синхронізована під HD відео, звук не розтягувався і не змінювався темп.
Про файл:
General
Unique ID : 261913083323304187822829654780348861965 (0xC50A9FFFFE8EEF789C9D3EFA46DE0E0D)
Complete name : D:\Documents\Torrents\MULTSER\Equestria Girls.Spring Breakdown.2019.1080p..Ukr.Eng.
Format :
Format version : Version 4
File size : 1.15 GiB
Duration : 42 min 13 s
Overall bit rate : 3 906 kb/s
Movie name : Equestria Girls Spring Breakdown 2019 1080p by sergiyko
Encoded date : UTC 2019-09-08 20:43:43
Writing application : v36.0.0 ('Is That Jazz?') 64-bit
Writing library : libebml v1.3.9 + v1.5.2

Video
ID : 1
Format : AVC
Format/Info : Advanced Video Codec
Format profile : [email protected]
Format settings : CABAC / 4 Ref Frames
Format settings, CABAC : Yes
Format settings, Reference : 4 frames
Codec ID : V_MPEG4/ISO/AVC
Duration : 42 min 13 s
Bit rate : 3 328 kb/s
Width : 1 920 pixels
Height : 1 080 pixels
Display aspect ratio : 16:9
Frame rate mode : Constant
Frame rate : 25.000 FPS
Original frame rate : 23.976 (24000/1001) FPS
Color space : YUV
Chroma subsampling : 4:2:0
Bit depth : 8 bits
Scan type : Progressive
Bits/(Pixel*Frame) : 0.064
Stream size : 1 005 MiB (85%)
Title : Equestria Girls Spring Breakdown.2019
Writing library : core 157 r2935 545de2f
Encoding settings : cabac=1 / ref=4 / deblock=1:0:0 / analyse=0x3:0x133 / me=tesa / subme=11 / psy=1 / psy_rd=1.00:0.00 / mixed_ref=1 / me_range=24 / chroma_me=1 / trellis=2 / 8x8dct=1 / cqm=0 / deadzone=21,11 / fast_pskip=0 / chroma_qp_offset=-2 / threads=12 / lookahead_threads=3 / sliced_threads=0 / nr=0 / decimate=1 / interlaced=0 / bluray_compat=0 / constrained_intra=0 / bframes=16 / b_pyramid=2 / b_adapt=2 / b_bias=0 / direct=3 / weightb=1 / open_gop=0 / weightp=2 / keyint=240 / keyint_min=24 / scenecut=40 / intra_refresh=0 / rc_lookahead=60 / rc=crf / mbtree=1 / crf=16.0 / qcomp=0.60 / qpmin=0 / qpmax=69 / qpstep=4 / vbv_maxrate=62500 / vbv_bufsize=78125 / crf_max=0.0 / nal_hrd=none / filler=0 / ip_ratio=1.40 / aq=1:1.00
Language : English
Default : Yes
Forced : No
Color range : Limited
Color primaries : BT.709
Transfer characteristics : BT.709
Matrix coefficients : BT.709

Audio #1
ID : 2
Format : AC-3
Format/Info : Audio Coding 3
Commercial name : Dolby Digital
Codec ID : A_AC3
Duration : 42 min 13 s
Bit rate mode : Constant
Bit rate : 192 kb/s
Channel(s) : 2 channels
Channel layout : L R
Sampling rate : 48.0 kHz
Frame rate : 31.250 FPS (1536 SPF)
Bit depth : 16 bits
Compression mode : Lossy
Stream size : 58.0 MiB (5%)
Title : DUB 2ch | ПлюсПлюс
Language : Ukrainian
Service kind : Complete Main
Default : Yes
Forced : Yes

Audio #2
ID : 3
Format : AC-3
Format/Info : Audio Coding 3
Commercial name : Dolby Digital
Codec ID : A_AC3
Duration : 42 min 13 s
Bit rate mode : Constant
Bit rate : 384 kb/s
Channel(s) : 6 channels
Channel layout : L R C LFE Ls Rs
Sampling rate : 48.0 kHz
Frame rate : 31.250 FPS (1536 SPF)
Bit depth : 16 bits
Compression mode : Lossy
Stream size : 116 MiB (10%)
Title : Original
Language : English
Service kind : Complete Main
Default : No
Forced : No
Скріншоти:


Автор запису/зведення: sergiyko


 Трекер:    Зареєстрований   

Завантажити / скачати мультфільм українською



відео для новачків



 Зареєстрований:   2019-09-08 22:46
 Розмір:   1.15 GB 
 Оцінка мультфільму:   10/10 (Голосів: 7)
   
bot 
робот


З нами з: 30.09.07
Востаннє: 26.05.05
Повідомлень: 27301

2019-09-08 20:26  
Тему перенесено з Мультфільми в HD до форуму Анонси релізів


sergiyko.5

bot 
робот


З нами з: 30.09.07
Востаннє: 26.05.05
Повідомлень: 27301

2019-09-08 22:46  
Тему перенесено з Анонси релізів до форуму Мультфільми в HD


sergiyko.5

Ваш часовий пояс: GMT + 2 Години

Нова тема   Відповісти