Формула 1. Сезон 2019. Етап 14. Гран-Прі Італії. Гонка (08.09.2019) 1080p 2xUkr

Нові коментарі

Нова тема   Відповісти
Автор Повідомлення
sergiyko.5 
VIP


З нами з: 25.02.16
Востаннє: 27.10.20
Повідомлень: 3633

2019-09-08 17:54  
Формула 1. Сезон 2019. Етап 14. Гран-Прі Італії. Гонка (08.09.2019) 1080p 2xUkr

Формула 1. Сезон 2019. Етап 14. Гран-Прі Італії. Гонка (08.09.2019) 1080p 2xUkr

Жанр: Перегони Формули 1
Країна: Італія
Телеканал: Setanta Sports
Коментатор: Роман Гончаров, Максим Подзігун

Опис:
Гонка 14 етапу Гран-Прі Італії 2019 року.


Тривалість: 01:45:58
Якість:

Відео: кодек: розмір кадру: 1920 х 1080 бітрейт: 6100 кб/с
Аудіо: мова: українська кодек: 2.0 бітрейт: 192 кб/с
Аудіо: мова: українська кодек: 2.0 бітрейт: 192 кб/с
Про файл:
General
Unique ID : 160062138290468431733299527847353045860 (0x786AD8B4DAD91A71F87E71A13A84D364)
Complete name : D:\Documents\Torrents\SPORT\F1.2019.14.Italy.Race.1080p..Ukr.
Format :
Format version : Version 4
File size : 4.81 GiB
Duration : 1 h 45 min
Overall bit rate mode : Variable
Overall bit rate : 6 493 kb/s
Movie name : rip by sergiyko
Encoded date : UTC 2019-09-08 15:49:44
Writing application : v36.0.0 ('Is That Jazz?') 64-bit
Writing library : libebml v1.3.9 + v1.5.2

Video
ID : 1
Format : AVC
Format/Info : Advanced Video Codec
Format profile : [email protected]
Format settings : CABAC / 3 Ref Frames
Format settings, CABAC : Yes
Format settings, Reference : 3 frames
Codec ID : V_MPEG4/ISO/AVC
Duration : 1 h 45 min
Bit rate mode : Variable
Bit rate : 6 106 kb/s
Maximum bit rate : 7 500 kb/s
Width : 1 920 pixels
Height : 1 080 pixels
Display aspect ratio : 16:9
Frame rate mode : Variable
Frame rate : 24.766 FPS
Original frame rate : 25.000 FPS
Color space : YUV
Chroma subsampling : 4:2:0
Bit depth : 8 bits
Scan type : Progressive
Bits/(Pixel*Frame) : 0.119
Stream size : 4.52 GiB (94%)
Language : English
Default : Yes
Forced : No

Audio #1
ID : 2
Format : MPEG Audio
Format version : Version 1
Format profile : Layer 2
Codec ID : A_MPEG/L2
Codec ID/Hint : MP2
Duration : 1 h 45 min
Bit rate mode : Constant
Bit rate : 192 kb/s
Channel(s) : 2 channels
Sampling rate : 48.0 kHz
Frame rate : 41.667 FPS (1152 SPF)
Compression mode : Lossy
Delay relative to video : 2 ms
Stream size : 146 MiB (3%)
Title : Роман Гончаров
Language : Ukrainian
Default : Yes
Forced : No

Audio #2
ID : 3
Format : MPEG Audio
Format version : Version 1
Format profile : Layer 2
Codec ID : A_MPEG/L2
Codec ID/Hint : MP2
Duration : 1 h 45 min
Bit rate mode : Constant
Bit rate : 192 kb/s
Channel(s) : 2 channels
Sampling rate : 48.0 kHz
Frame rate : 41.667 FPS (1152 SPF)
Compression mode : Lossy
Delay relative to video : 2 ms
Stream size : 146 MiB (3%)
Title : Максим Подзігун
Language : Ukrainian
Default : No
Forced : No
Скріншоти:


Запис/зведення: sergiyko


Золотий реліз (завантажене не впливає на рейтинг)
 Трекер:    Зареєстрований   

Завантажити / скачати торрент



відео для новачків



 Зареєстрований:   2019-09-08 17:54
 Розмір:   4.81 GB 
 Оцінка:   10/10 (Голосів: 27)
   
Light_Apollo 
Новенький


З нами з: 22.08.12
Востаннє: 25.10.20
Повідомлень: 7

2019-09-22 20:24  
Чудова гонка!
Ваш часовий пояс: GMT + 2 Години

Нова тема   Відповісти