Ґодзілла II: Король монстрів / Godzilla: King of the Monsters (2019) UHD Remux 4K 2160p HDR H.265 Ukr/Eng | Sub Eng

Нові коментарі

Нова тема   Відповісти
Автор Повідомлення
Bandit 01 
Новенький


З нами з: 22.07.11
Востаннє: 19.10.19
Повідомлень: 24

2019-09-08 18:26  
Ґодзілла II: Король монстрів / Godzilla: King of the Monsters (2019) UHD Remux 4K 2160p HDR H.265 Ukr/Eng | Sub Eng

Ґодзілла II: Король монстрів / Godzilla: King of the Monsters (2019) UHD Remux 4K 2160p HDR H.265 Ukr/Eng | Sub Eng


Жанр: екшн, пригодницький, фантастика, фентезі
Країна: США, Японія



Кінокомпанія: Warner Bros., Legendary Entertainment, Toho Company
Режисер: Майкл Догерті / Michael Dougherty
Актори: Кайл Чандлер / Kyle Chandler, Віра Фарміґа / Vera Farmiga, Міллі Боббі Браун / Millie Bobby Brown, Кен Ватанабе / Ken Watanabe, Чжан Цзиі / Ziyi Zhang, Бредлі Вітфорд / Bradley Whitford, Саллі Гокінс / Sally Hawkins, Чарльз Денс / Charles Dance, Томас Міддлдітч / Thomas Middleditch, Аіша Хіндс / Aisha Hinds та інші

Сюжет:
Картина розповідає про героїчні зусилля криптозоологічного агентства «Монарх», яке намагається стримати гігантських монстрів. На цей раз проти потужного Ґодзілли виступають Мотра, Родан і ультимативний кайдзю — триголовий монстр Кінг Гідора. І коли ці древні суперхижаки, які з плином часу перетворились на напівзабуті міфи, повстають знову, щоб зійтися в масштабному протистоянні, людству тільки й залишається, що відійти в сторону і намагатися не загинути.


Тривалість: 02:11:43
Якість: UHD Remux 4K 2160p
Відео:
кодек: H.265 (HEVC)
розмір кадру: 3840x2160
бітрейт: 56,4 Мб/с
бітова глибина: 10 біт
кольоровий простір: BT.2020 (HDR)

Аудіо # 1:
мова: українська
переклад: професійний дубльований
кодек: 5.1
бітрейт: 384 кб/с

Аудіо # 2:
мова: англійська
переклад: оригінал
кодек: TrueHD 7.1 (Atmos)
бітрейт: 3797 кб/с

Аудіо # 3:
мова: англійська
переклад: оригінал
кодек: 5.1
бітрейт: 448 кб/с

Субтитри # 1 (forced):
мова: українська
тип: програмні (м'які)
формат: *.srt

Субтитри # 2-3 (Full, SDH):
мова: англійська
тип: програмні (м'які)
формат: *.srt
Info
Код:
General
Complete name               : D:\Godzilla. King of the Monsters (2019) UHD Remux 4K 2160p [UKR_ENG] [Hurtom].
Format                      :
Format version              : Version 4
File size                   : 56.2 GiB
Duration                    : 2 h 11 min
Overall bit rate mode       : Variable
Overall bit rate            : 61.1 Mb/s
Movie name                  : Godzilla: King of the Monsters  2019 4K from селезень
Encoded date                : UTC 2019-09-07 16:42:21
Writing application         : v37.0.0 ('Leave It') 64-bit
Writing library             : libebml v1.3.9 + v1.5.2
Cover                       : Yes
Attachments                 : cover.jpg

Video
ID                          : 1
Format                      : HEVC
Format/Info                 : High Efficiency Video Coding
Format profile              : Main [email protected]@High
HDR format                  : SMPTE ST 2094 App 4, Version 1, HDR10+ Profile B compatible
Codec ID                    : V_MPEGH/ISO/HEVC
Duration                    : 2 h 11 min
Bit rate                    : 56.4 Mb/s
Width                       : 3 840 pixels
Height                      : 2 160 pixels
Display aspect ratio        : 16:9
Frame rate mode             : Constant
Frame rate                  : 23.976 (24000/1001) FPS
Color space                 : YUV
Chroma subsampling          : 4:2:0 (Type 2)
Bit depth                   : 10 bits
Bits/(Pixel*Frame)          : 0.284
Stream size                 : 51.9 GiB (92%)
Language                    : English
Default                     : Yes
Forced                      : No
Color range                 : Limited
Color primaries             : BT.2020
Transfer characteristics    : PQ
Matrix coefficients         : BT.2020 non-constant
Mastering display color pri : Display P3
Mastering display luminance : min: 0.0050 cd/m2, max: 4000 cd/m2
Maximum Content Light Level : 1998 cd/m2
Maximum Frame-Average Light : 414 cd/m2

Audio #1
ID                          : 2
Format                      : AC-3
Format/Info                 : Audio Coding 3
Commercial name             : Dolby Digital
Codec ID                    : A_AC3
Duration                    : 2 h 11 min
Bit rate mode               : Constant
Bit rate                    : 384 kb/s
Channel(s)                  : 6 channels
Channel layout              : L R C LFE Ls Rs
Sampling rate               : 48.0 kHz
Frame rate                  : 31.250 FPS (1536 SPF)
Bit depth                   : 16 bits
Compression mode            : Lossy
Stream size                 : 362 MiB (1%)
Title                       : Dub [Postmodern, іTunеs], 5.1 384 kbps
Language                    : Ukrainian
Service kind                : Complete Main
Default                     : Yes
Forced                      : Yes

Audio #2
ID                          : 3
Format                      : MLP FBA 16-ch
Format/Info                 : Meridian Lossless Packing FBA with 16-channel presentation
Commercial name             : Dolby TrueHD with Dolby Atmos
Codec ID                    : A_TRUEHD
Duration                    : 2 h 11 min
Bit rate mode               : Variable
Bit rate                    : 3 797 kb/s
Maximum bit rate            : 6 537 kb/s
Channel(s)                  : 8 channels
Channel layout              : L R C LFE Ls Rs Lb Rb
Sampling rate               : 48.0 kHz
Frame rate                  : 1 200.000 FPS (40 SPF)
Compression mode            : Lossless
Stream size                 : 3.49 GiB (6%)
Title                       : Original
Language                    : English
Default                     : No
Forced                      : No
Number of dynamic objects   : 15
Bed channel count           : 1 channel
Bed channel configuration   : LFE

Audio #3
ID                          : 4
Format                      : AC-3
Format/Info                 : Audio Coding 3
Commercial name             : Dolby Digital
Codec ID                    : A_AC3
Duration                    : 2 h 11 min
Bit rate mode               : Constant
Bit rate                    : 448 kb/s
Channel(s)                  : 6 channels
Channel layout              : L R C LFE Ls Rs
Sampling rate               : 48.0 kHz
Frame rate                  : 31.250 FPS (1536 SPF)
Bit depth                   : 16 bits
Compression mode            : Lossy
Stream size                 : 422 MiB (1%)
Language                    : English
Service kind                : Complete Main
Default                     : No
Forced                      : No

Text #1
ID                          : 5
Format                      : UTF-8
Codec ID                    : S_TEXT/UTF8
Codec ID/Info               : UTF-8 Plain Text
Duration                    : 2 h 9 min
Bit rate                    : 5 b/s
Count of elements           : 73
Stream size                 : 4.92 KiB (0%)
Title                       : Forced
Language                    : Ukrainian
Default                     : Yes
Forced                      : Yes

Text #2
ID                          : 6
Format                      : UTF-8
Codec ID                    : S_TEXT/UTF8
Codec ID/Info               : UTF-8 Plain Text
Duration                    : 2 h 10 min
Bit rate                    : 42 b/s
Count of elements           : 1482
Stream size                 : 40.9 KiB (0%)
Title                       : Full
Language                    : English
Default                     : No
Forced                      : No

Text #3
ID                          : 7
Format                      : UTF-8
Codec ID                    : S_TEXT/UTF8
Codec ID/Info               : UTF-8 Plain Text
Duration                    : 2 h 11 min
Bit rate                    : 51 b/s
Count of elements           : 1857
Stream size                 : 49.7 KiB (0%)
Title                       : SDH
Language                    : English
Default                     : No
Forced                      : No

Menu
00:00:00.000                : en:Chapter 01
00:10:53.903                : en:Chapter 02
00:18:06.836                : en:Chapter 03
00:30:27.325                : en:Chapter 04
00:45:18.633                : en:Chapter 05
00:54:11.039                : en:Chapter 06
01:05:41.646                : en:Chapter 07
01:09:31.584                : en:Chapter 08
01:19:31.308                : en:Chapter 09
01:30:06.234                : en:Chapter 10
01:38:36.869                : en:Chapter 11
01:49:58.884                : en:Chapter 12
01:59:28.828                : en:Chapter 13
Скріншоти
Джерело: &
Особиста оцінка: 10
Примітки:
• Після титрів є додаткова сценка.
Увага! Перед завантаженням переконайтесь, що ваш пристрій відтворення (та/або ПЗ) підтримує H.265 (HEVC)


Золотий реліз (завантажене не впливає на рейтинг)
 Трекер:    Зареєстрований   

Завантажити / скачати фільм українською



відео для новачків



 Зареєстрований:   2019-09-08 18:26
 Розмір:   56.23 GB 
 Оцінка фільму:   9.2/10 (Голосів: 5)
   
Ваш часовий пояс: GMT + 2 Години

Нова тема   Відповісти