Сприйняття (Сезони 1-2) / Perception (Seasons 1-2) (2012-2014) 720p Ukr/Eng | sub Eng

Нові коментарі

Нова тема   Відповісти
Автор Повідомлення
Anonymous 







2019-09-08 10:55  
Сприйняття (Сезони 1-2) / Perception (Seasons 1-2) (2012-2014) 720p Ukr/Eng | sub Eng

Сприйняття (Сезони 1-2) / Perception (Seasons 1-2) (2012-2014) 720p Ukr/Eng | sub Eng


Жанр: драма, детектив
Країна: США



Кінокомпанія: Paperboy Productions, ABC Studios
Режисер: Кеннет Біллер (Kenneth Biller), Майкл Сусман (Michael Sussman)
Актори: Ерік МакКормак (Eric McCormack), Рейчел Лі Кук (Rachael Leigh Cook), Ерджей Сміт (Arjay Smith) та інші

Сюжет:
Серіал розповідає про доктора Деніела Пірса - талановитого, але ексцентричного нейрофізіолога, якого запросили в ФБР для надання допомоги в розслідуванні найбільш складних справ. Доктор Пірс працює в тісній співпраці з Кейт Моретті, колишньою студенткою, яка і завербувала його для роботи з Бюро.


Тривалість: 1 серія: ~42 хв. (цілком серій: 24)
Перелік серій
Сезон 1
01) Pilot
02) Faces
03) 86'd
04) Cipher
05) Messenger
06) Lovesick
07) Nemesis
08) Kilimanjaro
09) Shadow
10) Light
Сезон 2
01) Ch-Ch-Changes
02) Alienation
03) Blindness
04) Toxic
05) Caleidoscope
06) Defective
07) Neuropositive
08) Asylum
09) Wounded
10) Warrior
11) Curveball
12) Brotherhood
13) Cobra
14) Obsession
Якість:
Відео:
кодек:
розмір кадру: 1280 x 720
бітрейт: ~4000 кб/с

Аудіо # 1:
мова: українська
переклад: багатоголосий закадровий
кодек: 2.0
бітрейт: 192 кб/с

Аудіо # 2:
мова: англійська
переклад: оригінал
кодек: 5.1
бітрейт: 384 кб/с

Джерело озвучення:


Субтитри:
мова: англійська
тип: програмні (м'які)
формат: *.srt
Info
General
Unique ID : 76907043491712233336968434304334895322 (0x39DBC1FF25DCDD943A242C013D0F18DA)
Complete name : F:\Support\series\Perception [, 720p, Ukr, Eng]\Season 1\Perception. s01e01. Pilot.
Format :
Format version : Version 4
File size : 1.44 GiB
Duration : 45 min 12 s
Overall bit rate : 4 560 kb/s
Encoded date : UTC 2019-09-08 06:37:59
Writing application : v37.0.0 ('Leave It') 64-bit
Writing library : libebml v1.3.9 + v1.5.2

Video
ID : 1
Format : AVC
Format/Info : Advanced Video Codec
Format profile : [email protected]
Format settings : 2 Ref Frames
Format settings, CABAC : No
Format settings, ReFrames : 2 frames
Codec ID : V_MPEG4/ISO/AVC
Duration : 45 min 12 s
Bit rate : 3 981 kb/s
Width : 1 280 pixels
Height : 720 pixels
Display aspect ratio : 16:9
Frame rate mode : Constant
Frame rate : 23.976 (23976/1000) FPS
Color space : YUV
Chroma subsampling : 4:2:0
Bit depth : 8 bits
Scan type : Progressive
Bits/(Pixel*Frame) : 0.180
Stream size : 1.26 GiB (87%)
Language : English
Default : Yes
Forced : No
Color range : Limited
Color primaries : BT.709
Transfer characteristics : BT.709
Matrix coefficients : BT.709

Audio #1
ID : 2
Format : AC-3
Format/Info : Audio Coding 3
Commercial name : Dolby Digital
Codec ID : A_AC3
Duration : 45 min 12 s
Bit rate mode : Constant
Bit rate : 192 kb/s
Channel(s) : 2 channels
Channel layout : L R
Sampling rate : 48.0 kHz
Frame rate : 31.250 FPS (1536 SPF)
Bit depth : 16 bits
Compression mode : Lossy
Stream size : 62.1 MiB (4%)
Title : 34 канал
Language : Ukrainian
Service kind : Complete Main
Default : Yes
Forced : No

Audio #2
ID : 3
Format : AC-3
Format/Info : Audio Coding 3
Commercial name : Dolby Digital
Codec ID : A_AC3
Duration : 45 min 12 s
Bit rate mode : Constant
Bit rate : 384 kb/s
Channel(s) : 6 channels
Channel layout : L R C LFE Ls Rs
Sampling rate : 48.0 kHz
Frame rate : 31.250 FPS (1536 SPF)
Bit depth : 16 bits
Compression mode : Lossy
Stream size : 124 MiB (8%)
Language : English
Service kind : Complete Main
Default : No
Forced : No

Text
ID : 4
Format : UTF-8
Codec ID : S_TEXT/UTF8
Codec ID/Info : UTF-8 Plain Text
Duration : 44 min 19 s
Bit rate : 98 b/s
Count of elements : 941
Stream size : 32.1 KiB (0%)
Language : English
Default : No
Forced : No
Скріншоти

Дякую krigg070 за запис та синхронізацію української доріжки

Джерело: &
Особиста оцінка: 0 - не дивився





Бронзовий реліз (на рейтинг впливає 75% завантаженого)
 Трекер:    Зареєстрований   

Завантажити / скачати серіал українською



відео для новачків



 Зареєстрований:   2019-09-13 20:47
 Розмір:   32.69 GB 
 Оцінка серіалу:   10/10 (Голосів: 2)
   
Anonymous 







2019-09-13 20:48  
Додав другий сезон
Nick777v 
Новенький


З нами з: 24.12.13
Востаннє: 19.09.19
Повідомлень: 7

2019-09-14 22:29  
34 канал почав 3 сезон. Надіюсь заллєте і його.
Ваш часовий пояс: GMT + 2 Години

Нова тема   Відповісти